<?xml version="1.0" standalone="no"?>
<!DOCTYPE svg PUBLIC "-//W3C//DTD SVG 1.1//EN" "http://www.w3.org/Graphics/SVG/1.1/DTD/svg11.dtd" >
<svg xmlns="http://www.w3.org/2000/svg" xmlns:xlink="http://www.w3.org/1999/xlink" version="1.1">
<metadata>
Created by FontForge 20190801 at Wed Apr 14 12:43:58 1999
 By www-data
Digitized data copyright The Monotype Corporation 1991-1995. All rights reserved. FelixTM Titling is a trademark of The Monotype Corporation which may be registered in certain jurisdictions.
</metadata>
<defs>
<font id="Felixti" horiz-adv-x="1110" >
  <font-face 
    font-family="Felixti"
    font-weight="400"
    font-stretch="normal"
    units-per-em="2048"
    panose-1="4 6 5 5 6 2 2 2 10 4"
    ascent="1638"
    descent="-410"
    x-height="1473"
    cap-height="1473"
    bbox="-369 -494 2351 1901"
    underline-thickness="104"
    underline-position="-204"
    unicode-range="U+0020-FB02"
  />
<missing-glyph horiz-adv-x="2048" 
d="M256 0v1536h1536v-1536h-1536zM384 128h1280v1280h-1280v-1280z" />
    <glyph glyph-name=".notdef" horiz-adv-x="2048" 
d="M256 0v1536h1536v-1536h-1536zM384 128h1280v1280h-1280v-1280z" />
    <glyph glyph-name=".null" horiz-adv-x="0" 
 />
    <glyph glyph-name="nonmarkingreturn" horiz-adv-x="596" 
 />
    <glyph glyph-name="space" unicode=" " horiz-adv-x="596" 
 />
    <glyph glyph-name="exclam" unicode="!" horiz-adv-x="342" 
d="M285 1473l-52 -553q-6 -54 -17 -118q-11 -63 -24.5 -194t-13.5 -180v-39h-18l-38 686q-8 158 -17.5 251t-27 110.5t-67.5 17.5v19h275zM279 86q0 -46 -33 -77.5t-76 -31.5q-42 0 -75.5 30.5t-33.5 78.5q0 45 30.5 77t78.5 32q45 0 77 -30.5t32 -78.5z" />
    <glyph glyph-name="quotedbl" unicode="&#x22;" horiz-adv-x="682" 
d="M41 944l-6 8q110 81 143 162.5t33 138.5q0 39 -23 39q-4 0 -18 -4t-25 -4q-44 0 -76 30t-32 72q0 43 30.5 76t82.5 33q62 0 107.5 -53t45.5 -148q0 -106 -58 -189.5t-204 -160.5zM383 944l-8 8q88 61 132 142.5t44 158.5q0 39 -21 39q-4 0 -18 -4t-25 -4q-44 0 -76 30
t-32 72q0 43 30.5 76t82.5 33q61 0 107 -52.5t46 -148.5q0 -106 -58 -189.5t-204 -160.5z" />
    <glyph glyph-name="numbersign" unicode="#" horiz-adv-x="1024" 
d="M424 954h256l57 424h97l-58 -424h209l-12 -94h-211l-49 -373h211l-13 -94h-213l-57 -426h-96l57 426h-254l-59 -426h-96l59 426h-211l12 94h211l51 373h-204l12 94h205l59 424h96zM666 860h-254l-52 -373h256z" />
    <glyph glyph-name="dollar" unicode="$" horiz-adv-x="1004" 
d="M852 1366l53 -201h-18q-131 241 -348 269v-611q187 -45 311.5 -148t124.5 -290q0 -153 -111 -268.5t-327 -134.5v-218h-41v216q-193 0 -392 96l-75 327h16q54 -161 176.5 -261t274.5 -111l2 641q-260 83 -336 204t-76 232q0 149 114 257t298 108v104h43v-104
q168 -17 311 -107zM498 838v598q-132 3 -227 -68t-95 -201q0 -62 22.5 -115t68 -94.5t121 -76t95.5 -39.5zM539 659l-2 -628q133 0 239.5 89.5t106.5 221.5q0 125 -88.5 196t-255.5 121z" />
    <glyph glyph-name="percent" unicode="%" horiz-adv-x="1642" 
d="M313 709q-126 0 -214.5 94t-88.5 268q0 192 94 311t238 119q133 0 217 -94.5t84 -271.5q0 -190 -94 -308t-236 -118zM346 750q73 0 125.5 73.5t52.5 216.5q0 206 -64 313t-151 107q-72 0 -127 -68t-55 -227q0 -186 64.5 -300.5t154.5 -114.5zM305 0l963 1497l65 -24
l-960 -1498zM1305 -10q-131 0 -218.5 94.5t-87.5 265.5q0 191 94 310.5t240 119.5q134 0 216.5 -95.5t82.5 -270.5q0 -183 -90.5 -303.5t-236.5 -120.5zM1337 29q73 0 126 73.5t53 216.5q0 195 -61.5 307.5t-156.5 112.5q-70 0 -125 -67.5t-55 -227.5q0 -194 66 -304.5
t153 -110.5z" />
    <glyph glyph-name="ampersand" unicode="&#x26;" horiz-adv-x="1855" 
d="M971 1399l63 -168h-20q-82 100 -190.5 161.5t-211.5 61.5q-94 0 -141 -53.5t-47 -118.5q0 -121 197 -315l653 -645q73 99 101 253t28 238q0 62 -28.5 78.5t-92.5 19.5l-14 2l-33 -2v17l313 2v-19q-50 6 -67.5 -27t-34.5 -147q-42 -300 -143 -444l151 -150
q109 -108 221 -108q81 0 168 51l10 -14q-134 -95 -290 -95q-164 0 -301 136q0 4 -11 14l-49 47q-209 -197 -538 -197q-317 0 -472 162t-155 357q0 169 104.5 293.5t286.5 158.5q-52 74 -79 134.5t-27 129.5q0 109 78 196t247 87q98 0 172 -26t152 -70zM1174 201l-562 544
q-6 5 -70.5 73.5t-84.5 96.5q-301 -70 -301 -301q0 -207 194.5 -384t442.5 -177q131 0 203 31.5t163 105.5q4 4 9 7t6 4z" />
    <glyph glyph-name="quotesingle" unicode="'" horiz-adv-x="342" 
d="M41 944l-6 8q110 81 143 162.5t33 138.5q0 39 -23 39q-4 0 -18 -4t-25 -4q-44 0 -76 30t-32 72q0 43 30.5 76t82.5 33q62 0 107.5 -53t45.5 -148q0 -106 -58 -189.5t-204 -160.5z" />
    <glyph glyph-name="parenleft" unicode="(" horiz-adv-x="748" 
d="M653 1495l35 -55q-543 -295 -543 -942q0 -297 128.5 -536.5t414.5 -399.5l-35 -56q-263 129 -419 394.5t-156 605.5q0 322 146.5 582t428.5 407z" />
    <glyph glyph-name="parenright" unicode=")" horiz-adv-x="748" 
d="M94 -494l-35 56q280 151 411.5 391t131.5 551q0 637 -543 936l35 55q266 -134 421 -393.5t155 -605.5q0 -321 -146.5 -582.5t-429.5 -407.5z" />
    <glyph glyph-name="asterisk" unicode="*" horiz-adv-x="725" 
d="M369 772h-15l-67 236l-236 -58l-6 15l164 174l-164 174l8 10l230 -57l73 231h15l65 -231l234 61l8 -12l-166 -180l166 -177l-8 -14l-232 64zM481 1137q0 51 -35 85.5t-84 34.5q-48 0 -84 -33.5t-36 -86.5q0 -50 35.5 -84.5t84.5 -34.5q50 0 84.5 35t34.5 84z" />
    <glyph glyph-name="plus" unicode="+" horiz-adv-x="1124" 
d="M506 1092h112v-482h486v-112h-486v-498h-112v498h-486v112h486v482z" />
    <glyph glyph-name="comma" unicode="," horiz-adv-x="342" 
d="M43 -362l-8 8q105 74 140.5 156t35.5 145q0 39 -21 39q-2 0 -22 -4q-9 -3 -16 -4h-7v-1q-42 0 -75 30t-33 73t31 75.5t82 32.5q60 0 106.5 -51.5t46.5 -148.5q0 -147 -89 -229t-171 -121z" />
    <glyph glyph-name="hyphen" unicode="-" horiz-adv-x="512" 
d="M45 694v84h422v-84h-422z" />
    <glyph glyph-name="period" unicode="." horiz-adv-x="342" 
d="M61 88q0 43 31 76t78 33q48 0 78.5 -32t30.5 -77q0 -44 -31 -76t-78 -32q-42 0 -75.5 32t-33.5 76z" />
    <glyph glyph-name="slash" unicode="/" horiz-adv-x="575" 
d="M588 1468h135l-735 -1468h-135z" />
    <glyph glyph-name="zero" unicode="0" horiz-adv-x="1192" 
d="M575 -23q-221 0 -358 188t-137 509q0 366 155 596.5t392 230.5q123 0 235 -73t182 -233.5t70 -399.5q0 -342 -149 -580t-390 -238zM643 31q116 0 213.5 143.5t97.5 439.5q0 375 -105.5 604.5t-291.5 229.5q-131 0 -224 -147.5t-93 -446.5q0 -356 110 -589.5t293 -233.5z
" />
    <glyph glyph-name="one" unicode="1" horiz-adv-x="532" 
d="M74 1335l264 164h16v-1364q0 -80 22.5 -100.5t104.5 -20.5v-14h-413v14q44 0 73 6.5t42.5 36.5t13.5 93v1101q0 43 -7.5 69t-39.5 26q-27 0 -76 -25v14z" />
    <glyph glyph-name="two" unicode="2" 
d="M1083 231l-67 -231h-969v37q412 326 567.5 573.5t155.5 460.5q0 179 -89.5 276t-221.5 97q-120 0 -227.5 -80t-165.5 -190l-39 20q102 166 220.5 234.5t268.5 68.5q197 0 314.5 -118.5t117.5 -284.5q0 -154 -123.5 -343.5t-410.5 -459.5l-170 -160h616q90 0 123 17t80 83
h20z" />
    <glyph glyph-name="three" unicode="3" horiz-adv-x="1153" 
d="M143 1188l54 198q113 68 195.5 88.5t172.5 20.5q213 0 306.5 -83t93.5 -195q0 -110 -73 -192.5t-224 -158.5v-4q171 -22 265.5 -140.5t94.5 -275.5q0 -203 -152 -334.5t-352 -131.5q-137 0 -242.5 50t-211.5 142v53q89 -73 190.5 -132.5t231.5 -59.5q152 0 259 101.5
t107 266.5q0 153 -101.5 255t-279.5 102q-49 0 -110 -10v40q9 7 20 7q240 65 324 156t84 220q0 131 -76 208t-189 77q-99 0 -187 -60.5t-183 -209.5z" />
    <glyph glyph-name="four" unicode="4" 
d="M1079 526h-270v-376q0 -81 17.5 -108.5t82.5 -27.5h27v-14h-424v14h27q55 0 75.5 11.5t28.5 40.5t8 81v379h-626l720 973h66v-889h172q45 0 60.5 7t17.5 38h18v-129zM133 608h518v690l-4 5z" />
    <glyph glyph-name="five" unicode="5" horiz-adv-x="1153" 
d="M305 1341l-55 -415q119 57 280 57q224 0 367 -136.5t143 -348.5q0 -208 -153 -363t-377 -155q-125 0 -233.5 45t-225.5 137v47q105 -67 206.5 -110.5t209.5 -43.5q187 0 301.5 121.5t114.5 280.5q0 153 -101.5 254.5t-277.5 101.5q-152 0 -330 -82l94 742h668
q36 0 60.5 4.5t37.5 31.5l17 2l-47 -168z" />
    <glyph glyph-name="six" unicode="6" horiz-adv-x="1192" 
d="M926 1499l10 -26q-337 -72 -502 -288.5t-180 -465.5l4 -4q73 131 185 185t219 54q191 0 321.5 -138t130.5 -339q0 -206 -144 -351.5t-343 -145.5q-224 0 -386.5 177t-162.5 441q0 327 217.5 582.5t630.5 318.5zM559 868q-118 0 -207.5 -87.5t-89.5 -202.5
q0 -191 131.5 -366t300.5 -175q127 0 204 88.5t77 210.5q0 189 -122 360.5t-294 171.5z" />
    <glyph glyph-name="seven" unicode="7" 
d="M27 1221l41 252h1011l-706 -1491h-107l645 1361h-565q-108 0 -194.5 -20.5t-108.5 -103.5z" />
    <glyph glyph-name="eight" unicode="8" horiz-adv-x="1192" 
d="M506 772q-144 89 -190 124.5t-86 103.5t-40 149q0 136 115.5 243t321.5 107q189 0 292 -82t103 -213q0 -224 -311 -368q205 -123 292 -220.5t87 -236.5q0 -181 -148.5 -290t-363.5 -109q-210 0 -343 100.5t-133 261.5q0 136 95.5 233.5t308.5 196.5zM668 860
q204 117 204 301q0 122 -88 203.5t-215 81.5q-108 0 -193 -56.5t-85 -164.5q0 -67 32.5 -116.5t151.5 -129t193 -119.5zM569 739l-18 11q-110 -50 -202.5 -136.5t-92.5 -216.5q0 -139 110 -255.5t263 -116.5q119 0 223 81t104 211q0 104 -68 193.5t-319 228.5z" />
    <glyph glyph-name="nine" unicode="9" horiz-adv-x="1192" 
d="M266 -20l-10 28q246 59 372 157t212 255t98 340l-4 4q-62 -119 -173.5 -178.5t-230.5 -59.5q-190 0 -321 137t-131 341t141.5 349.5t345.5 145.5q228 0 388.5 -176t160.5 -440q0 -330 -218 -584t-630 -319zM633 612q120 0 208.5 88.5t88.5 202.5q0 182 -130 361.5
t-302 179.5q-125 0 -203 -90t-78 -209q0 -186 119 -359.5t297 -173.5z" />
    <glyph glyph-name="colon" unicode=":" horiz-adv-x="342" 
d="M61 895q0 43 31 76t78 33q48 0 78.5 -32t30.5 -77q0 -46 -31 -77.5t-78 -31.5q-48 0 -78.5 33.5t-30.5 75.5zM61 88q0 43 31 76t78 33q48 0 78.5 -32t30.5 -77q0 -44 -31 -76t-78 -32q-42 0 -75.5 32t-33.5 76z" />
    <glyph glyph-name="semicolon" unicode=";" horiz-adv-x="342" 
d="M61 895q0 43 31 76t78 33q48 0 78.5 -32t30.5 -77q0 -46 -31 -77.5t-78 -31.5q-48 0 -78.5 33.5t-30.5 75.5zM43 -362l-8 8q105 74 140.5 156t35.5 145q0 39 -21 39q-2 0 -22 -4q-9 -3 -16 -4h-7v-1q-42 0 -75 30t-33 73t31 75.5t82 32.5q60 0 106.5 -51.5t46.5 -148.5
q0 -147 -89 -229t-171 -121z" />
    <glyph glyph-name="less" unicode="&#x3c;" horiz-adv-x="1124" 
d="M53 471v127l1018 471v-127l-887 -407l887 -408v-127z" />
    <glyph glyph-name="equal" unicode="=" horiz-adv-x="1124" 
d="M1100 799v-113h-1077v113h1077zM1100 401v-112h-1077v112h1077z" />
    <glyph glyph-name="greater" unicode="&#x3e;" horiz-adv-x="1124" 
d="M1071 598v-127l-1018 -471v127l887 408l-887 407v127z" />
    <glyph glyph-name="question" unicode="?" horiz-adv-x="725" 
d="M264 385l-20 516q152 27 236.5 103t84.5 192q0 99 -70 179.5t-184 80.5q-85 0 -160.5 -45.5t-117.5 -142.5h-17l47 174q132 53 246 53q179 0 285 -98t106 -260q0 -255 -270 -355q-81 -29 -100.5 -48.5t-24.5 -80.5l-20 -268h-21zM168 86q0 45 31.5 77t76.5 32
q46 0 77.5 -32t31.5 -77q0 -44 -32.5 -76.5t-76.5 -32.5t-76 31.5t-32 77.5z" />
    <glyph glyph-name="at" unicode="@" horiz-adv-x="1886" 
d="M1556 162q-162 -102 -300.5 -143.5t-305.5 -41.5q-341 0 -582 206t-241 501q0 334 263.5 572.5t645.5 238.5q297 0 501 -167.5t204 -430.5q0 -217 -135.5 -395t-305.5 -178q-94 0 -147.5 50t-50.5 185q-45 -128 -117 -181.5t-151 -53.5q-117 0 -198 78.5t-81 215.5
q0 179 138.5 330.5t305.5 151.5q162 0 203 -172l47 145h150q-166 -513 -166 -586q0 -38 29 -74t81 -36q113 0 229 150.5t116 365.5q0 263 -201 404t-440 141q-309 0 -552 -218.5t-243 -533.5q0 -294 208 -477.5t521 -183.5q131 0 283 44.5t266 129.5zM1167 907
q0 66 -36 101.5t-97 35.5q-116 0 -215.5 -171t-99.5 -330q0 -78 41 -123t106 -45q138 0 219.5 215t81.5 317z" />
    <glyph glyph-name="A" unicode="A" horiz-adv-x="1409" 
d="M856 678h-430l-223 -557q-23 -60 -23 -74q0 -33 49 -33v-14h-219v14q44 0 74 21.5t66 111.5l534 1348h25l526 -1302q0 -10 40.5 -94.5t123.5 -84.5v-14h-344v14q47 0 47 37q0 25 -23 80q-4 4 -7 13q-2 10 -3 10zM440 719h398l-199 502z" />
    <glyph glyph-name="B" unicode="B" horiz-adv-x="1194" 
d="M84 1458v15h383q168 0 238 -14t134 -53.5t109 -114t45 -169.5q0 -187 -184 -295q159 -27 240 -131.5t81 -253.5q0 -139 -69.5 -253t-159 -151.5t-250.5 -37.5h-569v14q68 0 87 27.5t19 140.5v1110q0 80 -4.5 109t-29.5 43t-70 14zM358 1442v-647h179q182 0 241.5 104
t59.5 207q0 111 -46 185.5t-134.5 112.5t-260.5 38h-39zM473 764h-115v-467q0 -97 7.5 -126t34 -61t85.5 -51.5t170 -19.5q172 0 243 79.5t71 235.5q0 162 -63 264t-142.5 124t-290.5 22z" />
    <glyph glyph-name="C" unicode="C" horiz-adv-x="1579" 
d="M1348 1399l55 -156h-14q-214 213 -504 213q-301 0 -486.5 -179t-185.5 -433q0 -157 82.5 -361t260.5 -335.5t431 -131.5q166 0 325.5 53.5t237.5 143.5l13 -4l-103 -158q-250 -54 -324.5 -64t-199.5 -10q-463 0 -662.5 214.5t-199.5 513.5q0 202 102.5 388.5t295.5 294
t441 107.5q124 0 214.5 -22.5t150.5 -46.5l66 -25q3 -1 4 -2z" />
    <glyph glyph-name="D" unicode="D" horiz-adv-x="1729" 
d="M78 1458v15h676q258 0 407.5 -40.5t260.5 -127.5t176 -222.5t65 -302.5q0 -161 -67.5 -316.5t-183.5 -268t-244.5 -154t-397.5 -41.5h-692v14h18q54 0 71 43.5t17 157.5v1073q0 120 -20.5 145t-85.5 25zM580 1442h-226v-1143q0 -108 36.5 -160.5t124.5 -76t237 -23.5
q414 0 581.5 212.5t167.5 463.5q0 295 -229.5 511t-691.5 216z" />
    <glyph glyph-name="E" unicode="E" 
d="M80 1456v17h926v-203h-15q-30 113 -50.5 133t-100.5 20h-486v-661h451q67 0 85 12.5t19 36.5h15v-139h-15q-5 29 -23.5 39t-68.5 10h-463v-455q0 -103 19 -148.5t60.5 -57t125.5 -11.5h260q124 0 158.5 8.5t58.5 34t37 111.5h14v-203h-1007v14q51 3 77.5 19.5t26.5 85.5
v1190q0 81 -14 114t-90 33z" />
    <glyph glyph-name="F" unicode="F" horiz-adv-x="1024" 
d="M74 1458v15h932v-173h-15v7q-2 2 -2 6q-20 76 -56 93t-110 17h-475v-649h443q57 0 78 9t24 40h14v-141h-14q0 51 -66 51h-479v-588q0 -83 25.5 -107t87.5 -24v-14h-387v14q68 0 86 26t18 73v1212q0 74 -21 103.5t-83 29.5z" />
    <glyph glyph-name="G" unicode="G" horiz-adv-x="1556" 
d="M1522 14v-14h-594q-171 0 -299.5 37t-262 140.5t-216 257.5t-82.5 315q0 176 103.5 351t294.5 284.5t433 109.5q217 0 459 -96l61 -170h-14q-77 98 -210.5 162.5t-297.5 64.5q-285 0 -467 -214.5t-182 -532.5q0 -132 30 -235.5t112.5 -204t177 -148t211.5 -66t186 -16.5
l79 2q134 5 167.5 25t33.5 102v223q0 65 -27 87.5t-77 19.5v14h381v-14q-64 0 -85.5 -25t-21.5 -96v-232q0 -70 18.5 -100.5t67.5 -30.5h21z" />
    <glyph glyph-name="H" unicode="H" horiz-adv-x="1516" 
d="M1161 735h-809v-567q0 -80 7.5 -102t28 -37t71.5 -15v-14h-381v14q104 -7 104 101v1185q0 101 -16.5 128t-87.5 30v15h381v-15q-63 -4 -85 -24t-22 -82v-576h809v527q0 90 -15.5 122.5t-86.5 32.5v15h377v-15q-45 0 -67 -10.5t-30 -32.5t-8 -112v-1131q0 -87 8 -108.5
t28 -35.5t69 -14v-14h-377v14q61 0 81.5 25t20.5 135v561z" />
    <glyph glyph-name="I" unicode="I" horiz-adv-x="532" 
d="M463 1473v-15q-29 3 -64.5 -9t-42 -35t-6.5 -109v-1131q0 -92 7.5 -112.5t29 -34t76.5 -13.5v-14h-393v14q74 0 92 28.5t18 129.5v1120q0 105 -20 137.5t-90 28.5v15h393z" />
    <glyph glyph-name="J" unicode="J" horiz-adv-x="532" 
d="M70 1473h395v-15q-76 0 -94.5 -31t-18.5 -100v-1253q0 -179 -12 -267t-54 -154.5t-111 -106.5t-161 -40q-88 0 -180 31l2 17q27 -9 80 -9q130 0 198 95t68 325v1356q0 91 -22.5 114t-89.5 23v15z" />
    <glyph glyph-name="K" unicode="K" horiz-adv-x="1686" 
d="M59 1473h422v-15q-69 3 -97 -20.5t-28 -122.5v-565l875 657q26 18 26 33q0 18 -59 18v15h318v-15q-120 -3 -234 -88l-762 -569l760 -578q1 -1 3 -2t3 -3q2 -1 4 -1q150 -112 232.5 -157.5t154.5 -45.5v-14h-501v14q67 0 67 15q0 13 -55 55l-832 633v-547q0 -96 13.5 -118
t36 -31.5t73.5 -6.5v-14h-420v14q84 -4 105.5 25.5t21.5 124.5v1143q0 98 -21.5 127t-105.5 24v15z" />
    <glyph glyph-name="L" unicode="L" 
d="M25 0v14q69 0 89.5 26t20.5 89v1206q0 64 -16 92.5t-96 30.5v15h395v-15q-55 0 -77 -14t-29 -33t-7 -86v-1034q0 -133 64 -187.5t219 -54.5h180q130 0 190.5 64t67.5 241h14v-354h-1015z" />
    <glyph glyph-name="M" unicode="M" horiz-adv-x="1812" 
d="M1427 1473h232v-15q-117 -6 -117 -123q0 -25 6 -69l154 -1116q14 -84 31.5 -107.5t72.5 -28.5v-14h-331v14q65 -2 65 64q0 15 -6 59l-150 1082l-528 -1219h-10l-531 1217l-149 -1088q-4 -25 -4 -57q0 -58 67 -58v-14h-225v14q51 0 65.5 13t22.5 40.5t12 61.5l168 1190
q-41 99 -82 119t-79 20v15h278l518 -1205z" />
    <glyph glyph-name="N" unicode="N" horiz-adv-x="1642" 
d="M1288 1473h285v-15q-65 -2 -90 -27.5t-25 -107.5v-1341l-1175 1251v-1090q0 -52 8 -77t23 -34t75 -18v-14h-283v14q76 0 94.5 27t18.5 129v997q0 131 -36.5 214t-168.5 77v15h277l1104 -1176v1040q0 84 -30 102.5t-77 18.5v15z" />
    <glyph glyph-name="O" unicode="O" horiz-adv-x="1665" 
d="M893 1495q310 0 507 -188.5t197 -470.5q0 -363 -228 -611t-605 -248q-306 0 -501 200t-195 480q0 189 94 388t283 324.5t448 125.5zM887 55q152 0 300 81.5t233 224.5t85 294q0 214 -114.5 389t-297 274t-337.5 99q-219 0 -397.5 -165t-178.5 -410q0 -313 218 -550
t489 -237z" />
    <glyph glyph-name="P" unicode="P" horiz-adv-x="1087" 
d="M82 1458v15h420q224 0 325.5 -50t148 -124.5t46.5 -196.5q0 -187 -129 -281t-350 -90v14q140 0 227.5 86t87.5 226q0 109 -42.5 193.5t-119.5 128.5t-235 44h-105v-1261q0 -107 24 -127.5t91 -20.5v-14h-389v14q104 0 104 95v1220q0 78 -20 103.5t-84 25.5z" />
    <glyph glyph-name="Q" unicode="Q" horiz-adv-x="1665" 
d="M987 4q1 -3 30 -22l155 -110q127 -90 235.5 -146.5t216.5 -87.5t215 -31q41 0 115 10l2 -12q-63 -30 -150 -50t-131 -20q-160 0 -419 118t-488 324q-331 0 -515.5 208.5t-184.5 469.5q0 199 95.5 393.5t283 320.5t446.5 126q311 0 507.5 -189.5t196.5 -471.5
t-155.5 -519.5t-454.5 -310.5zM887 53q152 0 300 81.5t233 224.5t85 294q0 219 -118.5 396.5t-300.5 272.5t-330 95q-219 0 -397.5 -165t-178.5 -410q0 -311 217.5 -550t489.5 -239z" />
    <glyph glyph-name="R" unicode="R" horiz-adv-x="1622" 
d="M80 1458v15h418q159 0 230 -7t145.5 -46.5t112.5 -107t38 -165.5q0 -112 -67.5 -213.5t-190.5 -171.5l104 -160q34 -60 180.5 -263t226.5 -247.5t155 -44.5q74 0 170 57l6 -20q-120 -98 -312 -98q-128 0 -220 75.5t-320 415.5q-2 2 -2 4l-148 228l-131 -4h-119v-564
q0 -68 18 -97.5t87 -29.5v-14h-381v14q71 3 88.5 30t17.5 110v1171q0 57 -15 94.5t-91 38.5zM356 1434v-691h154q182 0 270 86t88 226q0 136 -86.5 257.5t-304.5 121.5h-121z" />
    <glyph glyph-name="S" unicode="S" horiz-adv-x="981" 
d="M786 1454l70 -184l-12 -2q0 1 -55.5 59t-127 89.5t-161.5 31.5q-151 0 -239.5 -86.5t-88.5 -208.5q0 -81 41.5 -141.5t173.5 -112.5q227 -76 310.5 -114.5t161 -130.5t77.5 -236q0 -60 -14 -114.5t-45 -105t-74.5 -92t-88.5 -63t-142 -32.5t-128 -11h-393v428h15
q2 -213 100 -297t305 -84q188 0 285.5 89t97.5 214q0 76 -34 129.5t-95 94t-231 98.5q-169 59 -237.5 103.5t-114.5 134t-46 182.5q0 171 117.5 287t308.5 116q74 0 160 -17t96 -22q4 -2 8 -2z" />
    <glyph glyph-name="T" unicode="T" horiz-adv-x="1237" 
d="M1239 1524l-70 -178h-14q4 16 4 43q0 23 -16.5 29.5t-52.5 6.5h-385v-1261q0 -78 12.5 -106.5t34 -36t69.5 -7.5v-14h-399v14q75 5 94 29t19 100v1282h-369q-56 0 -73 -6.5t-17 -32.5q0 -13 8 -40h-14l-70 178h14q18 -36 35.5 -43.5t75.5 -7.5h979q58 0 83.5 7.5
t37.5 43.5h14z" />
    <glyph glyph-name="U" unicode="U" horiz-adv-x="1536" 
d="M1452 0h-278v227q-213 -237 -508 -237q-219 0 -347.5 123t-128.5 340v882q0 80 -19 101.5t-89 21.5v15h391v-15q-62 0 -87.5 -19.5t-25.5 -92.5v-809q0 -254 119 -362.5t271 -108.5q239 0 424 215v997q0 131 -23 155.5t-72 24.5h-14v15h387v-15q-72 -4 -90.5 -24
t-18.5 -76v-1200q0 -71 7 -93t28.5 -36.5t73.5 -14.5v-14z" />
    <glyph glyph-name="V" unicode="V" horiz-adv-x="1409" 
d="M719 -23h-19l-524 1297q-56 137 -92 160.5t-74 23.5v15h340v-15q-45 3 -45 -35q0 -15 6 -32l457 -1135l454 1134q9 23 9 37q0 34 -53 31v15h221v-15q-23 0 -48.5 -6.5t-52.5 -51.5t-28 -48z" />
    <glyph glyph-name="W" unicode="W" horiz-adv-x="2111" 
d="M1493 -23h-23l-407 1123l-399 -1123h-23l-479 1315q-29 80 -62 123t-96 43v15h348v-15q-51 0 -51 -37q0 -22 16 -67l390 -1071l321 905l-31 86q-41 113 -78.5 148.5t-84.5 35.5v15h344v-15q-50 0 -50 -43q0 -13 21 -69l389 -1067l389 1086q1 4 2 5l15 51q0 37 -52 37v15
h215v-15q-88 -1 -139 -143z" />
    <glyph glyph-name="X" unicode="X" horiz-adv-x="1386" 
d="M1253 1473v-15q-62 7 -110 -61q-1 0 -3 -3q-1 -3 -3 -5l-8 -11q-5 -6 -5 -8l-10 -10l-375 -529l449 -647q74 -112 113 -142.5t75 -27.5v-14h-366v14q47 -3 47 33q0 29 -31 74l-391 563l-395 -551q0 -1 -23 -35q-27 -32 -27 -57q0 -30 50 -27v-14h-220v14q48 0 84 37
l17 18l477 668l-440 635q0 14 -38 52t-85 34v15h371v-15q-60 0 -60 -33q0 -24 37 -77l322 -463l346 485q1 1 15.5 28t14.5 34q0 17 -10.5 21.5t-40.5 4.5v15h223z" />
    <glyph glyph-name="Y" unicode="Y" horiz-adv-x="1174" 
d="M940 1473h221v-15q-42 -3 -69 -20t-62 -70l-360 -545v-676q0 -82 21 -107.5t91 -25.5v-14h-393v14q113 -7 113 89l-2 42v623l-361 598q-57 95 -127 92v15h348v-15q-49 0 -49 -37q0 -19 25 -59l297 -490l325 494q9 8 20 29.5t11 29.5q0 33 -43 33h-6v15z" />
    <glyph glyph-name="Z" unicode="Z" horiz-adv-x="1450" 
d="M1411 231v-231h-1397l1143 1417h-766q-95 0 -130.5 -24.5t-49.5 -120.5h-14l8 201h1212l-1147 -1418h977q85 0 114.5 35t35.5 141h14z" />
    <glyph glyph-name="bracketleft" unicode="[" horiz-adv-x="641" 
d="M575 -467h-419v1940h419v-68h-352v-1806h352v-66z" />
    <glyph glyph-name="backslash" unicode="\" horiz-adv-x="575" 
d="M-12 1468l735 -1468h-135l-735 1468h135z" />
    <glyph glyph-name="bracketright" unicode="]" horiz-adv-x="641" 
d="M66 1473h419v-1940h-419v68h352v1806h-352v66z" />
    <glyph glyph-name="asciicircum" unicode="^" horiz-adv-x="1124" 
d="M498 1475h127l471 -1018h-127l-406 886l-409 -886h-127z" />
    <glyph glyph-name="underscore" unicode="_" horiz-adv-x="1024" 
d="M-12 -256v104h1048v-104h-1048z" />
    <glyph glyph-name="grave" unicode="`" horiz-adv-x="682" 
d="M150 1884h180l170 -309h-47z" />
    <glyph glyph-name="a" unicode="a" horiz-adv-x="1409" 
d="M856 678h-430l-223 -557q-23 -60 -23 -74q0 -33 49 -33v-14h-219v14q44 0 74 21.5t66 111.5l534 1348h25l526 -1302q0 -10 40.5 -94.5t123.5 -84.5v-14h-344v14q47 0 47 37q0 25 -23 80q-4 4 -7 13q-2 10 -3 10zM440 719h398l-199 502z" />
    <glyph glyph-name="b" unicode="b" horiz-adv-x="1194" 
d="M84 1458v15h383q168 0 238 -14t134 -53.5t109 -114t45 -169.5q0 -187 -184 -295q159 -27 240 -131.5t81 -253.5q0 -139 -69.5 -253t-159 -151.5t-250.5 -37.5h-569v14q68 0 87 27.5t19 140.5v1110q0 80 -4.5 109t-29.5 43t-70 14zM358 1442v-647h179q182 0 241.5 104
t59.5 207q0 111 -46 185.5t-134.5 112.5t-260.5 38h-39zM473 764h-115v-467q0 -97 7.5 -126t34 -61t85.5 -51.5t170 -19.5q172 0 243 79.5t71 235.5q0 162 -63 264t-142.5 124t-290.5 22z" />
    <glyph glyph-name="c" unicode="c" horiz-adv-x="1579" 
d="M1348 1399l55 -156h-14q-214 213 -504 213q-301 0 -486.5 -179t-185.5 -433q0 -157 82.5 -361t260.5 -335.5t431 -131.5q166 0 325.5 53.5t237.5 143.5l13 -4l-103 -158q-250 -54 -324.5 -64t-199.5 -10q-463 0 -662.5 214.5t-199.5 513.5q0 202 102.5 388.5t295.5 294
t441 107.5q124 0 214.5 -22.5t150.5 -46.5l66 -25q3 -1 4 -2z" />
    <glyph glyph-name="d" unicode="d" horiz-adv-x="1729" 
d="M78 1458v15h676q258 0 407.5 -40.5t260.5 -127.5t176 -222.5t65 -302.5q0 -161 -67.5 -316.5t-183.5 -268t-244.5 -154t-397.5 -41.5h-692v14h18q54 0 71 43.5t17 157.5v1073q0 120 -20.5 145t-85.5 25zM580 1442h-226v-1143q0 -108 36.5 -160.5t124.5 -76t237 -23.5
q414 0 581.5 212.5t167.5 463.5q0 295 -229.5 511t-691.5 216z" />
    <glyph glyph-name="e" unicode="e" 
d="M80 1456v17h926v-203h-15q-30 113 -50.5 133t-100.5 20h-486v-661h451q67 0 85 12.5t19 36.5h15v-139h-15q-5 29 -23.5 39t-68.5 10h-463v-455q0 -103 19 -148.5t60.5 -57t125.5 -11.5h260q124 0 158.5 8.5t58.5 34t37 111.5h14v-203h-1007v14q51 3 77.5 19.5t26.5 85.5
v1190q0 81 -14 114t-90 33z" />
    <glyph glyph-name="f" unicode="f" horiz-adv-x="1024" 
d="M74 1458v15h932v-173h-15v7q-2 2 -2 6q-20 76 -56 93t-110 17h-475v-649h443q57 0 78 9t24 40h14v-141h-14q0 51 -66 51h-479v-588q0 -83 25.5 -107t87.5 -24v-14h-387v14q68 0 86 26t18 73v1212q0 74 -21 103.5t-83 29.5z" />
    <glyph glyph-name="g" unicode="g" horiz-adv-x="1556" 
d="M1522 14v-14h-594q-171 0 -299.5 37t-262 140.5t-216 257.5t-82.5 315q0 176 103.5 351t294.5 284.5t433 109.5q217 0 459 -96l61 -170h-14q-77 98 -210.5 162.5t-297.5 64.5q-285 0 -467 -214.5t-182 -532.5q0 -132 30 -235.5t112.5 -204t177 -148t211.5 -66t186 -16.5
l79 2q134 5 167.5 25t33.5 102v223q0 65 -27 87.5t-77 19.5v14h381v-14q-64 0 -85.5 -25t-21.5 -96v-232q0 -70 18.5 -100.5t67.5 -30.5h21z" />
    <glyph glyph-name="h" unicode="h" horiz-adv-x="1516" 
d="M1161 735h-809v-567q0 -80 7.5 -102t28 -37t71.5 -15v-14h-381v14q104 -7 104 101v1185q0 101 -16.5 128t-87.5 30v15h381v-15q-63 -4 -85 -24t-22 -82v-576h809v527q0 90 -15.5 122.5t-86.5 32.5v15h377v-15q-45 0 -67 -10.5t-30 -32.5t-8 -112v-1131q0 -87 8 -108.5
t28 -35.5t69 -14v-14h-377v14q61 0 81.5 25t20.5 135v561z" />
    <glyph glyph-name="i" unicode="i" horiz-adv-x="532" 
d="M463 1473v-15q-29 3 -64.5 -9t-42 -35t-6.5 -109v-1131q0 -92 7.5 -112.5t29 -34t76.5 -13.5v-14h-393v14q74 0 92 28.5t18 129.5v1120q0 105 -20 137.5t-90 28.5v15h393z" />
    <glyph glyph-name="j" unicode="j" horiz-adv-x="532" 
d="M70 1473h395v-15q-76 0 -94.5 -31t-18.5 -100v-1253q0 -179 -12 -267t-54 -154.5t-111 -106.5t-161 -40q-88 0 -180 31l2 17q27 -9 80 -9q130 0 198 95t68 325v1356q0 91 -22.5 114t-89.5 23v15z" />
    <glyph glyph-name="k" unicode="k" horiz-adv-x="1686" 
d="M59 1473h422v-15q-69 3 -97 -20.5t-28 -122.5v-565l875 657q26 18 26 33q0 18 -59 18v15h318v-15q-120 -3 -234 -88l-762 -569l760 -578q1 -1 3 -2t3 -3q2 -1 4 -1q150 -112 232.5 -157.5t154.5 -45.5v-14h-501v14q67 0 67 15q0 13 -55 55l-832 633v-547q0 -96 13.5 -118
t36 -31.5t73.5 -6.5v-14h-420v14q84 -4 105.5 25.5t21.5 124.5v1143q0 98 -21.5 127t-105.5 24v15z" />
    <glyph glyph-name="l" unicode="l" 
d="M25 0v14q69 0 89.5 26t20.5 89v1206q0 64 -16 92.5t-96 30.5v15h395v-15q-55 0 -77 -14t-29 -33t-7 -86v-1034q0 -133 64 -187.5t219 -54.5h180q130 0 190.5 64t67.5 241h14v-354h-1015z" />
    <glyph glyph-name="m" unicode="m" horiz-adv-x="1812" 
d="M1427 1473h232v-15q-117 -6 -117 -123q0 -25 6 -69l154 -1116q14 -84 31.5 -107.5t72.5 -28.5v-14h-331v14q65 -2 65 64q0 15 -6 59l-150 1082l-528 -1219h-10l-531 1217l-149 -1088q-4 -25 -4 -57q0 -58 67 -58v-14h-225v14q51 0 65.5 13t22.5 40.5t12 61.5l168 1190
q-41 99 -82 119t-79 20v15h278l518 -1205z" />
    <glyph glyph-name="n" unicode="n" horiz-adv-x="1642" 
d="M1288 1473h285v-15q-65 -2 -90 -27.5t-25 -107.5v-1341l-1175 1251v-1090q0 -52 8 -77t23 -34t75 -18v-14h-283v14q76 0 94.5 27t18.5 129v997q0 131 -36.5 214t-168.5 77v15h277l1104 -1176v1040q0 84 -30 102.5t-77 18.5v15z" />
    <glyph glyph-name="o" unicode="o" horiz-adv-x="1665" 
d="M893 1495q310 0 507 -188.5t197 -470.5q0 -363 -228 -611t-605 -248q-306 0 -501 200t-195 480q0 189 94 388t283 324.5t448 125.5zM887 55q152 0 300 81.5t233 224.5t85 294q0 214 -114.5 389t-297 274t-337.5 99q-219 0 -397.5 -165t-178.5 -410q0 -313 218 -550
t489 -237z" />
    <glyph glyph-name="p" unicode="p" horiz-adv-x="1087" 
d="M82 1458v15h420q224 0 325.5 -50t148 -124.5t46.5 -196.5q0 -187 -129 -281t-350 -90v14q140 0 227.5 86t87.5 226q0 109 -42.5 193.5t-119.5 128.5t-235 44h-105v-1261q0 -107 24 -127.5t91 -20.5v-14h-389v14q104 0 104 95v1220q0 78 -20 103.5t-84 25.5z" />
    <glyph glyph-name="q" unicode="q" horiz-adv-x="1665" 
d="M987 4q1 -3 30 -22l155 -110q127 -90 235.5 -146.5t216.5 -87.5t215 -31q41 0 115 10l2 -12q-63 -30 -150 -50t-131 -20q-160 0 -419 118t-488 324q-331 0 -515.5 208.5t-184.5 469.5q0 199 95.5 393.5t283 320.5t446.5 126q311 0 507.5 -189.5t196.5 -471.5
t-155.5 -519.5t-454.5 -310.5zM887 53q152 0 300 81.5t233 224.5t85 294q0 219 -118.5 396.5t-300.5 272.5t-330 95q-219 0 -397.5 -165t-178.5 -410q0 -311 217.5 -550t489.5 -239z" />
    <glyph glyph-name="r" unicode="r" horiz-adv-x="1622" 
d="M80 1458v15h418q159 0 230 -7t145.5 -46.5t112.5 -107t38 -165.5q0 -112 -67.5 -213.5t-190.5 -171.5l104 -160q34 -60 180.5 -263t226.5 -247.5t155 -44.5q74 0 170 57l6 -20q-120 -98 -312 -98q-128 0 -220 75.5t-320 415.5q-2 2 -2 4l-148 228l-131 -4h-119v-564
q0 -68 18 -97.5t87 -29.5v-14h-381v14q71 3 88.5 30t17.5 110v1171q0 57 -15 94.5t-91 38.5zM356 1434v-691h154q182 0 270 86t88 226q0 136 -86.5 257.5t-304.5 121.5h-121z" />
    <glyph glyph-name="s" unicode="s" horiz-adv-x="981" 
d="M786 1454l70 -184l-12 -2q0 1 -55.5 59t-127 89.5t-161.5 31.5q-151 0 -239.5 -86.5t-88.5 -208.5q0 -81 41.5 -141.5t173.5 -112.5q227 -76 310.5 -114.5t161 -130.5t77.5 -236q0 -60 -14 -114.5t-45 -105t-74.5 -92t-88.5 -63t-142 -32.5t-128 -11h-393v428h15
q2 -213 100 -297t305 -84q188 0 285.5 89t97.5 214q0 76 -34 129.5t-95 94t-231 98.5q-169 59 -237.5 103.5t-114.5 134t-46 182.5q0 171 117.5 287t308.5 116q74 0 160 -17t96 -22q4 -2 8 -2z" />
    <glyph glyph-name="t" unicode="t" horiz-adv-x="1237" 
d="M1239 1524l-70 -178h-14q4 16 4 43q0 23 -16.5 29.5t-52.5 6.5h-385v-1261q0 -78 12.5 -106.5t34 -36t69.5 -7.5v-14h-399v14q75 5 94 29t19 100v1282h-369q-56 0 -73 -6.5t-17 -32.5q0 -13 8 -40h-14l-70 178h14q18 -36 35.5 -43.5t75.5 -7.5h979q58 0 83.5 7.5
t37.5 43.5h14z" />
    <glyph glyph-name="u" unicode="u" horiz-adv-x="1536" 
d="M1452 0h-278v227q-213 -237 -508 -237q-219 0 -347.5 123t-128.5 340v882q0 80 -19 101.5t-89 21.5v15h391v-15q-62 0 -87.5 -19.5t-25.5 -92.5v-809q0 -254 119 -362.5t271 -108.5q239 0 424 215v997q0 131 -23 155.5t-72 24.5h-14v15h387v-15q-72 -4 -90.5 -24
t-18.5 -76v-1200q0 -71 7 -93t28.5 -36.5t73.5 -14.5v-14z" />
    <glyph glyph-name="v" unicode="v" horiz-adv-x="1409" 
d="M719 -23h-19l-524 1297q-56 137 -92 160.5t-74 23.5v15h340v-15q-45 3 -45 -35q0 -15 6 -32l457 -1135l454 1134q9 23 9 37q0 34 -53 31v15h221v-15q-23 0 -48.5 -6.5t-52.5 -51.5t-28 -48z" />
    <glyph glyph-name="w" unicode="w" horiz-adv-x="2111" 
d="M1493 -23h-23l-407 1123l-399 -1123h-23l-479 1315q-29 80 -62 123t-96 43v15h348v-15q-51 0 -51 -37q0 -22 16 -67l390 -1071l321 905l-31 86q-41 113 -78.5 148.5t-84.5 35.5v15h344v-15q-50 0 -50 -43q0 -13 21 -69l389 -1067l389 1086q1 4 2 5l15 51q0 37 -52 37v15
h215v-15q-88 -1 -139 -143z" />
    <glyph glyph-name="x" unicode="x" horiz-adv-x="1386" 
d="M1253 1473v-15q-62 7 -110 -61q-1 0 -3 -3q-1 -3 -3 -5l-8 -11q-5 -6 -5 -8l-10 -10l-375 -529l449 -647q74 -112 113 -142.5t75 -27.5v-14h-366v14q47 -3 47 33q0 29 -31 74l-391 563l-395 -551q0 -1 -23 -35q-27 -32 -27 -57q0 -30 50 -27v-14h-220v14q48 0 84 37
l17 18l477 668l-440 635q0 14 -38 52t-85 34v15h371v-15q-60 0 -60 -33q0 -24 37 -77l322 -463l346 485q1 1 15.5 28t14.5 34q0 17 -10.5 21.5t-40.5 4.5v15h223z" />
    <glyph glyph-name="y" unicode="y" horiz-adv-x="1174" 
d="M940 1473h221v-15q-42 -3 -69 -20t-62 -70l-360 -545v-676q0 -82 21 -107.5t91 -25.5v-14h-393v14q113 -7 113 89l-2 42v623l-361 598q-57 95 -127 92v15h348v-15q-49 0 -49 -37q0 -19 25 -59l297 -490l325 494q9 8 20 29.5t11 29.5q0 33 -43 33h-6v15z" />
    <glyph glyph-name="z" unicode="z" horiz-adv-x="1450" 
d="M1411 231v-231h-1397l1143 1417h-766q-95 0 -130.5 -24.5t-49.5 -120.5h-14l8 201h1212l-1147 -1418h977q85 0 114.5 35t35.5 141h14z" />
    <glyph glyph-name="braceleft" unicode="{" horiz-adv-x="983" 
d="M842 -408v-34q-170 22 -273.5 137t-103.5 252q0 62 22 155q1 0 5 19l12 67q8 46 8 68q0 68 -56 134t-173 81v39q119 18 174 82.5t55 132.5q0 55 -23.5 148t-23.5 161q0 142 106 254t271 135v-37q-228 -57 -228 -235q0 -57 24 -149t24 -164q0 -104 -71 -195.5t-226 -146.5
v-4q143 -51 220 -148.5t77 -200.5q0 -68 -24 -161t-24 -152q0 -179 228 -238z" />
    <glyph glyph-name="bar" unicode="|" horiz-adv-x="410" 
d="M133 1378h143v-1740h-143v1740z" />
    <glyph glyph-name="braceright" unicode="}" horiz-adv-x="983" 
d="M141 1389v34q170 -22 273.5 -137t103.5 -252q0 -49 -12 -107l-23 -106q-12 -64 -12 -96q0 -68 55 -132.5t174 -82.5v-39q-116 -15 -172.5 -80.5t-56.5 -134.5q0 -49 16 -115q31 -123 31 -194q0 -135 -101 -249.5t-276 -139.5v36q228 56 228 236q0 57 -23.5 154.5
t-23.5 158.5q0 94 68 189.5t228 152.5v4q-143 51 -219.5 148.5t-76.5 200.5q0 75 23.5 158t23.5 155q0 182 -228 238z" />
    <glyph glyph-name="asciitilde" unicode="~" horiz-adv-x="1087" 
d="M68 459h-35q0 105 100 159t213 54q86 0 230.5 -48t175 -55.5t69.5 -7.5q77 0 134 29t75 82h33q0 -97 -98.5 -155t-231.5 -58q-71 0 -119 11t-150.5 45.5t-137.5 43t-70 8.5q-54 0 -118.5 -30.5t-69.5 -77.5z" />
    <glyph glyph-name="nonbreakingspace" unicode="&#xa0;" horiz-adv-x="596" 
 />
    <glyph glyph-name="exclamdown" unicode="&#xa1;" horiz-adv-x="342" 
d="M63 1386q0 44 31.5 76.5t77.5 32.5q47 0 78 -32.5t31 -76.5t-31.5 -76t-77.5 -32q-44 0 -76.5 32.5t-32.5 75.5zM57 0l52 553l34 246l15 137q6 58 6 108v39h18q4 -108 14.5 -254.5t20.5 -356.5t19 -308.5t21.5 -122t74.5 -23.5v-18h-275z" />
    <glyph glyph-name="cent" unicode="&#xa2;" 
d="M330 -258l-39 14l110 254q-103 33 -209 127t-106 307q0 218 148 365t389 147q88 0 174 -26l84 192l34 -16l-79 -186q45 -18 82 -37q8 -24 40 -138l-14 -2q-59 82 -131 121l-342 -790q95 -49 217 -49q230 0 334 149l14 -6q-54 -116 -67 -139q-159 -47 -348 -47
q-104 0 -181 18zM438 96l338 787q-72 35 -174 35q-182 0 -289.5 -107t-107.5 -254q0 -133 69 -265.5t164 -195.5z" />
    <glyph glyph-name="sterling" unicode="&#xa3;" horiz-adv-x="1130" 
d="M201 590h-170v43h170v321q0 269 126.5 406t313.5 137q169 0 340 -108l55 -201l-16 -2q-165 270 -373 270q-138 0 -207 -102.5t-69 -282.5v-440h409v-41h-409v-318q0 -92 24.5 -135.5t86 -69.5t175.5 -26h166q108 0 144.5 20t58 41t46 81.5t24.5 170.5h12v-354h-1034v12
q94 4 110.5 32.5t16.5 88.5v457z" />
    <glyph glyph-name="currency" unicode="&#xa4;" horiz-adv-x="819" 
d="M162 647l-154 156l51 51l152 -156q85 70 195 70q102 0 186 -61l151 149l52 -51l-150 -150q68 -86 68 -195q0 -108 -66 -190l156 -161l-51 -50l-150 164q-87 -70 -196 -70q-108 0 -195 70l-156 -155l-51 51l156 160q-62 78 -62 182q0 103 64 186zM632 462q0 91 -66 157.5
t-159 66.5q-91 0 -159 -65t-68 -160t66.5 -160t159.5 -65q94 0 160 66t66 160z" />
    <glyph glyph-name="yen" unicode="&#xa5;" horiz-adv-x="1174" 
d="M473 813l-334 553q-57 95 -127 92v15h348v-15q-49 0 -49 -37q0 -19 25 -59l297 -490l325 494q9 8 20 29.5t11 29.5q0 33 -43 33h-6v15h221v-15q-42 -3 -69 -20t-62 -70l-360 -545v-10h424v-43h-424v-301h424v-43h-424v-279q0 -82 21 -107.5t91 -25.5v-14h-393v14
q28 -2 69.5 10.5t41.5 88.5v313h-422v43h422v301h-422v43h395z" />
    <glyph glyph-name="brokenbar" unicode="&#xa6;" horiz-adv-x="410" 
d="M133 1380h143v-800h-143v800zM133 438h143v-800h-143v800z" />
    <glyph glyph-name="section" unicode="&#xa7;" horiz-adv-x="981" 
d="M887 213q49 -80 49 -199q0 -68 -19 -130t-59.5 -117.5t-91 -93t-90.5 -47.5t-120 -19.5t-112 -9.5h-393v428h15q2 -214 101 -297.5t304 -83.5q185 0 284 88t99 215q0 67 -30 123.5t-96.5 99t-238.5 102t-237.5 105.5t-110.5 131t-45 180q0 113 56 205q-56 92 -56 199
q0 171 117.5 287t308.5 116q74 0 160 -17t96 -22q4 -2 8 -2l70 -184l-12 -2q0 1 -55.5 59t-127 89.5t-161.5 31.5q-151 0 -239.5 -86.5t-88.5 -208.5q0 -81 41.5 -141.5t173.5 -112.5q227 -76 310.5 -114.5t161 -130.5t77.5 -236q0 -116 -49 -205zM190 838q-18 -53 -18 -88
q0 -80 40.5 -141t174.5 -113q237 -79 313.5 -115.5t141.5 -110.5q12 43 12 80q0 76 -34 129.5t-95 94t-219.5 95.5t-217 87t-98.5 82z" />
    <glyph glyph-name="dieresis" unicode="&#xa8;" horiz-adv-x="682" 
d="M535 1577q-39 0 -66 26.5t-27 65.5q0 44 28.5 69t64.5 25q37 0 64.5 -27.5t27.5 -66.5q0 -37 -25.5 -64.5t-66.5 -27.5zM147 1577q-40 0 -66 27t-26 65q0 43 28 68.5t64 25.5t64.5 -27t28.5 -67q0 -39 -29 -65.5t-64 -26.5z" />
    <glyph glyph-name="copyright" unicode="&#xa9;" horiz-adv-x="1556" 
d="M70 678q0 292 207.5 500t500.5 208q290 0 499.5 -206.5t209.5 -501.5q0 -288 -207 -498.5t-502 -210.5q-296 0 -502 210.5t-206 498.5zM1425 678q0 173 -86.5 325t-238 237t-322.5 85q-265 0 -456 -188t-191 -459q0 -270 191 -458.5t456 -188.5q268 0 457.5 189.5
t189.5 457.5zM1128 1135l21 -281h-39q-74 236 -303 236q-149 0 -235.5 -104t-86.5 -286q0 -188 80 -299.5t252 -111.5q195 0 311 162l37 -21q-138 -203 -383 -203q-205 0 -334 133.5t-129 311.5q0 195 142 329t356 134q48 0 82 -7l141 -38q33 0 50 45h38z" />
    <glyph glyph-name="ordfeminine" unicode="&#xaa;" horiz-adv-x="618" 
d="M518 1360v-383q0 -31 21 -31q13 0 36 21q18 10 19 10q10 0 10 -12q0 -42 -38.5 -77.5t-80.5 -35.5q-35 0 -55 23.5t-20 62.5v29q-55 -55 -105.5 -84t-116.5 -29q-64 0 -103.5 32t-39.5 87q0 65 44 106.5t228 100.5q62 20 93 32v107q0 48 -26.5 79.5t-72.5 31.5
q-65 0 -114 -34t-91 -81l-34 28q69 92 126 129t136 37q88 0 136 -45t48 -104zM410 1014v162q-166 -62 -206 -97.5t-40 -74.5q0 -33 25.5 -52.5t56.5 -19.5q79 0 164 82z" />
    <glyph glyph-name="guillemotleft" unicode="&#xab;" horiz-adv-x="897" 
d="M438 1116l-196 -381l198 -377h-32l-353 379l348 379h35zM844 1116l-197 -381l199 -377h-33l-352 379l348 379h35z" />
    <glyph glyph-name="logicalnot" unicode="&#xac;" horiz-adv-x="1460" 
d="M31 477v113h1362v-590h-113v477h-1249z" />
    <glyph glyph-name="sfthyphen" unicode="&#xad;" horiz-adv-x="1124" 
d="M1100 602v-113h-1077v113h1077z" />
    <glyph glyph-name="registered" unicode="&#xae;" horiz-adv-x="1556" 
d="M70 678q0 292 207.5 500t500.5 208q290 0 499.5 -206.5t209.5 -501.5q0 -288 -207 -498.5t-502 -210.5q-296 0 -502 210.5t-206 498.5zM1425 678q0 173 -86.5 325t-238 237t-322.5 85q-265 0 -456 -188t-191 -459q0 -270 191 -458.5t456 -188.5q268 0 457.5 189.5
t189.5 457.5zM385 1114h387q137 0 217 -63t80 -160q0 -165 -223 -223l211 -297q44 -62 70 -74t51 -14v-35h-185l-295 405h-75v-235q0 -76 5.5 -93t28 -29.5t84.5 -12.5v-35h-366v35q62 0 83 20.5t21 116.5v524q0 95 -18.5 115t-75.5 20v35zM623 1055v-359h30q106 0 180 41.5
t74 141.5q0 79 -55.5 134.5t-144.5 55.5q-44 0 -84 -14z" />
    <glyph glyph-name="overscore" unicode="&#xaf;" horiz-adv-x="1024" 
d="M-12 1622v104h1048v-104h-1048z" />
    <glyph glyph-name="degree" unicode="&#xb0;" horiz-adv-x="819" 
d="M410 1403q127 0 217 -90t90 -217q0 -125 -89 -216.5t-218 -91.5q-127 0 -217.5 91t-90.5 217q0 130 91.5 218.5t216.5 88.5zM410 870q92 0 158.5 66.5t66.5 159.5q0 94 -68.5 159.5t-158.5 65.5q-92 0 -158 -65t-66 -160q0 -94 66 -160t160 -66z" />
    <glyph glyph-name="plusminus" unicode="&#xb1;" horiz-adv-x="1124" 
d="M20 836h486v485h112v-485h486v-113h-486v-485h-112v485h-486v113zM1104 0h-1084v113h1084v-113z" />
    <glyph glyph-name="twosuperior" unicode="&#xb2;" horiz-adv-x="662" 
d="M657 852l-45 -131h-583l-2 14q80 71 126 108q293 234 293 433q0 88 -51 135t-121 47q-62 0 -126.5 -41t-100.5 -100l-41 18q50 72 115 118t186 46q122 0 195 -63t73 -148q0 -90 -85 -195t-322 -288v-4h344q38 0 58.5 4.5t54.5 46.5h32z" />
    <glyph glyph-name="threesuperior" unicode="&#xb3;" horiz-adv-x="682" 
d="M72 1327l34 111q106 61 230 61q135 0 191.5 -46.5t56.5 -102.5q0 -102 -164 -176v-5q99 -18 150 -78t51 -135q0 -108 -93 -176.5t-217 -68.5q-152 0 -280 104v45q106 -74 159 -92t101 -18q77 0 141 47.5t64 134.5q0 79 -57 127.5t-156 48.5q-44 0 -76 -8v35q0 2 8 4
q10 0 127 39t117 149q0 63 -41.5 100t-102.5 37q-89 0 -150 -65.5t-61 -71.5h-32z" />
    <glyph glyph-name="acute" unicode="&#xb4;" horiz-adv-x="682" 
d="M352 1884h180l-303 -309h-47z" />
    <glyph glyph-name="mu1" unicode="&#xb5;" horiz-adv-x="1180" 
d="M131 1024h176v-682q0 -132 59 -185t134 -53q54 0 109.5 33t88.5 73.5t33 51.5v762h176v-786q0 -85 34.5 -129.5t75.5 -44.5q29 0 58.5 22t37 62.5t13.5 58.5h41q-33 -152 -111 -197.5t-134 -45.5t-93.5 24t-58 56.5t-37.5 121.5q-148 -201 -336 -201q-34 0 -71.5 13.5
t-120.5 84.5v-47q0 -54 33 -162.5t33 -170.5q0 -66 -31 -103t-68 -37q-41 0 -70.5 41t-29.5 100q0 51 30 164q29 91 29 168v1008z" />
    <glyph glyph-name="paragraph" unicode="&#xb6;" horiz-adv-x="1237" 
d="M1090 1456q-92 -3 -115 -31v-1470q0 -83 13 -110t36.5 -34.5t93.5 -7.5v-14h-581v16q33 5 62 15t41.5 25t12.5 87v697q-232 34 -373 149.5t-141 294.5q0 198 131.5 299t380.5 101h439v-17zM715 1425v-1470q0 -86 15.5 -118t76.5 -32q30 0 59.5 12.5t38 31.5t8.5 83v1493
h-198z" />
    <glyph glyph-name="periodcentered" unicode="&#xb7;" horiz-adv-x="342" 
d="M61 739q0 44 32.5 76.5t76.5 32.5q48 0 78.5 -31.5t30.5 -77.5q0 -43 -31 -75.5t-78 -32.5t-78 32.5t-31 75.5z" />
    <glyph glyph-name="periodcentered" unicode="&#x2219;" horiz-adv-x="342" 
d="M61 739q0 44 32.5 76.5t76.5 32.5q48 0 78.5 -31.5t30.5 -77.5q0 -43 -31 -75.5t-78 -32.5t-78 32.5t-31 75.5z" />
    <glyph glyph-name="cedilla" unicode="&#xb8;" horiz-adv-x="682" 
d="M428 20l-53 -96q145 -46 145 -157q0 -96 -100 -157t-258 -52v41q159 5 206.5 48t47.5 83q0 96 -158 106q100 144 117 184h53z" />
    <glyph glyph-name="onesuperior" unicode="&#xb9;" horiz-adv-x="319" 
d="M33 1413l166 86h20l2 -704q0 -36 9 -45t44 -9h23v-20h-268v20q56 0 66.5 8.5t10.5 51.5v565l-1 30q-1 13 -15 13q-8 0 -30 -8t-25 -12z" />
    <glyph glyph-name="ordmasculine" unicode="&#xba;" horiz-adv-x="705" 
d="M39 1186q0 136 93.5 229.5t213.5 93.5q142 0 231 -98.5t89 -234.5q0 -141 -93 -236.5t-217 -95.5q-135 0 -226 102t-91 240zM557 1126q0 124 -68.5 220t-158.5 96q-85 0 -134 -58.5t-49 -148.5q0 -127 71.5 -223.5t164.5 -96.5q71 0 122.5 60t51.5 151z" />
    <glyph glyph-name="guillemotright" unicode="&#xbb;" horiz-adv-x="897" 
d="M459 358l196 381l-198 377h32l353 -379l-348 -379h-35zM53 358l197 381l-199 377h33l352 -379l-348 -379h-35z" />
    <glyph glyph-name="onequarter" unicode="&#xbc;" horiz-adv-x="1341" 
d="M1057 1501l-787 -1526h-114l786 1526h115zM399 721h-268v20q51 0 64.5 7.5t13.5 52.5v565q0 43 -16 43q-8 0 -30.5 -8t-25.5 -12l-2 24l166 86l23 -2v-702q0 -36 7 -45t46 -9h22v-20zM1255 262h-135v-172q0 -42 8.5 -54.5t40.5 -12.5h15v-23h-246v23h14q38 0 47 14t9 51
v174h-361l408 488h65v-445h80q30 0 39 35h16v-78zM1006 303l2 330q-279 -330 -281 -330h279z" />
    <glyph glyph-name="onehalf" unicode="&#xbd;" horiz-adv-x="1341" 
d="M942 1501h115l-787 -1526h-114zM135 1413l166 86l23 -2v-702q0 -36 7 -45t46 -9h22v-20h-268v20q51 0 64.5 7.5t13.5 52.5v565q0 43 -16 43q-8 0 -30.5 -8t-25.5 -12zM1305 131l-45 -131h-584l-2 14q85 75 133 113q287 232 287 428q0 89 -51.5 135.5t-120.5 46.5
q-63 0 -127.5 -41t-100.5 -100l-41 18q52 76 117.5 120t183.5 44q122 0 195.5 -63t73.5 -148t-80 -188t-328 -295v-4h344q38 0 58.5 5t54.5 46h33z" />
    <glyph glyph-name="threequarters" unicode="&#xbe;" horiz-adv-x="1341" 
d="M1053 1501h114l-784 -1526h-117zM72 1327l34 111q106 61 230 61q135 0 191.5 -46.5t56.5 -102.5q0 -102 -164 -176v-5q99 -18 150 -78t51 -135q0 -108 -93 -176.5t-217 -68.5q-152 0 -280 104v45q106 -74 159 -92t101 -18q77 0 141 47.5t64 134.5q0 79 -57 127.5
t-156 48.5q-44 0 -76 -8v35q0 2 8 4q10 0 127 39t117 149q0 63 -41.5 100t-102.5 37q-89 0 -150 -65.5t-61 -71.5h-32zM1255 262h-135v-172q0 -42 8.5 -54.5t40.5 -12.5h15v-23h-246v23h14q38 0 47 14t9 51v174h-361l408 488h65v-445h80q32 0 39 33h16v-76zM1006 303l2 330
q-279 -330 -281 -330h279z" />
    <glyph glyph-name="questiondown" unicode="&#xbf;" horiz-adv-x="725" 
d="M549 1386q0 -44 -33 -76t-76 -32q-45 0 -76.5 32t-31.5 76q0 45 31.5 77t76.5 32t77 -31.5t32 -77.5zM453 1087l20 -516q-144 -23 -232.5 -97.5t-88.5 -197.5q0 -100 69 -180t185 -80q87 0 163.5 48t114.5 141h16l-47 -174q-131 -54 -245 -54q-188 0 -290 102.5
t-102 256.5q0 160 83.5 238.5t178.5 113t112 53.5t22 78l20 268h21z" />
    <glyph glyph-name="Agrave" unicode="&#xc0;" horiz-adv-x="1409" 
d="M856 678h-430l-223 -557q-23 -60 -23 -74q0 -33 49 -33v-14h-219v14q44 0 74 21.5t66 111.5l534 1348h25l526 -1302q0 -10 40.5 -94.5t123.5 -84.5v-14h-344v14q47 0 47 37q0 25 -23 80q-4 4 -7 13q-2 10 -3 10zM440 719h398l-199 502zM514 1884h180l170 -309h-47z" />
    <glyph glyph-name="Aacute" unicode="&#xc1;" horiz-adv-x="1409" 
d="M856 678h-430l-223 -557q-23 -60 -23 -74q0 -33 49 -33v-14h-219v14q44 0 74 21.5t66 111.5l534 1348h25l526 -1302q0 -10 40.5 -94.5t123.5 -84.5v-14h-344v14q47 0 47 37q0 25 -23 80q-4 4 -7 13q-2 10 -3 10zM440 719h398l-199 502zM717 1884h180l-303 -309h-47z" />
    <glyph glyph-name="Acircumflex" unicode="&#xc2;" horiz-adv-x="1409" 
d="M856 678h-430l-223 -557q-23 -60 -23 -74q0 -33 49 -33v-14h-219v14q44 0 74 21.5t66 111.5l534 1348h25l526 -1302q0 -10 40.5 -94.5t123.5 -84.5v-14h-344v14q47 0 47 37q0 25 -23 80q-4 4 -7 13q-2 10 -3 10zM440 719h398l-199 502zM759 1884l264 -309h-45l-272 192
l-272 -192h-47l264 309h108z" />
    <glyph glyph-name="Atilde" unicode="&#xc3;" horiz-adv-x="1409" 
d="M856 678h-430l-223 -557q-23 -60 -23 -74q0 -33 49 -33v-14h-219v14q44 0 74 21.5t66 111.5l534 1348h25l526 -1302q0 -10 40.5 -94.5t123.5 -84.5v-14h-344v14q47 0 47 37q0 25 -23 80q-4 4 -7 13q-2 10 -3 10zM440 719h398l-199 502zM1010 1790h41q2 -91 -63.5 -152
t-155.5 -61q-67 0 -147 41t-109 54.5t-62 13.5q-42 0 -72.5 -27.5t-33.5 -81.5h-43q-2 99 62 156t147 57q27 0 60 -9t123.5 -54.5t133.5 -45.5q94 0 119 109z" />
    <glyph glyph-name="Adieresis" unicode="&#xc4;" horiz-adv-x="1409" 
d="M856 678h-430l-223 -557q-23 -60 -23 -74q0 -33 49 -33v-14h-219v14q44 0 74 21.5t66 111.5l534 1348h25l526 -1302q0 -10 40.5 -94.5t123.5 -84.5v-14h-344v14q47 0 47 37q0 25 -23 80q-4 4 -7 13q-2 10 -3 10zM440 719h398l-199 502zM900 1577q-39 0 -66 26.5t-27 65.5
q0 44 28.5 69t64.5 25q37 0 64.5 -27.5t27.5 -66.5q0 -37 -25.5 -64.5t-66.5 -27.5zM512 1577q-40 0 -66 27t-26 65q0 43 28 68.5t64 25.5t64.5 -27t28.5 -67q0 -39 -29 -65.5t-64 -26.5z" />
    <glyph glyph-name="Aring" unicode="&#xc5;" horiz-adv-x="1409" 
d="M856 678h-430l-223 -557q-23 -60 -23 -74q0 -33 49 -33v-14h-219v14q44 0 74 21.5t66 111.5l534 1348h25l526 -1302q0 -10 40.5 -94.5t123.5 -84.5v-14h-344v14q47 0 47 37q0 25 -23 80q-4 4 -7 13q-2 10 -3 10zM440 719h398l-199 502zM705 1575q-66 0 -114 47.5
t-48 116.5q0 66 47 114t115 48q67 0 115.5 -46.5t48.5 -115.5q0 -67 -46 -115.5t-118 -48.5zM705 1855q-46 0 -81.5 -34t-35.5 -82q0 -47 35 -82t82 -35q51 0 85 34t34 83q0 50 -34.5 83t-84.5 33z" />
    <glyph glyph-name="AE" unicode="&#xc6;" horiz-adv-x="1772" 
d="M854 725h-336l-328 -631q-14 -26 -14 -43q0 -38 49 -35v-16h-217v16q67 4 109 70l725 1387h827v-205h-14q-26 106 -49 130.5t-101 24.5h-481v-657h438q66 0 87.5 8.5t25.5 40.5h14v-141h-14q-1 39 -44 45t-95 6h-412v-385q0 -197 36 -244t138 -47h322q93 0 129.5 11.5
t59 43.5t30.5 95h14v-199h-1003v14q68 -3 84.5 30t17.5 110l2 112v459zM541 766h313v602h-4z" />
    <glyph glyph-name="Ccedilla" unicode="&#xc7;" horiz-adv-x="1579" 
d="M874 -20l-28 -56q143 -46 143 -157q0 -95 -98.5 -156.5t-257.5 -52.5v41q158 5 205 46.5t47 84.5q0 97 -158 106q64 94 96 144q-384 20 -566.5 232.5t-182.5 492.5q0 202 102.5 388.5t295.5 294t441 107.5q156 0 262 -36l169 -58q3 -1 4 -2l55 -156h-14
q-78 80 -203.5 146.5t-300.5 66.5q-201 0 -357 -85t-235.5 -229t-79.5 -298q0 -157 82.5 -361t260.5 -335.5t431 -131.5q165 0 324.5 52.5t238.5 144.5l13 -4l-103 -158q-243 -53 -346.5 -65t-239.5 -6z" />
    <glyph glyph-name="Egrave" unicode="&#xc8;" 
d="M80 1456v17h926v-203h-15q-30 113 -50.5 133t-100.5 20h-486v-661h451q67 0 85 12.5t19 36.5h15v-139h-15q-5 29 -23.5 39t-68.5 10h-463v-455q0 -103 19 -148.5t60.5 -57t125.5 -11.5h260q124 0 158.5 8.5t58.5 34t37 111.5h14v-203h-1007v14q51 3 77.5 19.5t26.5 85.5
v1190q0 81 -14 114t-90 33zM365 1884h180l170 -309h-47z" />
    <glyph glyph-name="Eacute" unicode="&#xc9;" 
d="M80 1456v17h926v-203h-15q-30 113 -50.5 133t-100.5 20h-486v-661h451q67 0 85 12.5t19 36.5h15v-139h-15q-5 29 -23.5 39t-68.5 10h-463v-455q0 -103 19 -148.5t60.5 -57t125.5 -11.5h260q124 0 158.5 8.5t58.5 34t37 111.5h14v-203h-1007v14q51 3 77.5 19.5t26.5 85.5
v1190q0 81 -14 114t-90 33zM608 1884h180l-303 -309h-47z" />
    <glyph glyph-name="Ecircumflex" unicode="&#xca;" 
d="M80 1456v17h926v-203h-15q-30 113 -50.5 133t-100.5 20h-486v-661h451q67 0 85 12.5t19 36.5h15v-139h-15q-5 29 -23.5 39t-68.5 10h-463v-455q0 -103 19 -148.5t60.5 -57t125.5 -11.5h260q124 0 158.5 8.5t58.5 34t37 111.5h14v-203h-1007v14q51 3 77.5 19.5t26.5 85.5
v1190q0 81 -14 114t-90 33zM610 1884l264 -309h-45l-272 192l-272 -192h-47l264 309h108z" />
    <glyph glyph-name="Edieresis" unicode="&#xcb;" 
d="M80 1456v17h926v-203h-15q-30 113 -50.5 133t-100.5 20h-486v-661h451q67 0 85 12.5t19 36.5h15v-139h-15q-5 29 -23.5 39t-68.5 10h-463v-455q0 -103 19 -148.5t60.5 -57t125.5 -11.5h260q124 0 158.5 8.5t58.5 34t37 111.5h14v-203h-1007v14q51 3 77.5 19.5t26.5 85.5
v1190q0 81 -14 114t-90 33zM750 1577q-39 0 -66 26.5t-27 65.5q0 44 28.5 69t64.5 25q37 0 64.5 -27.5t27.5 -66.5q0 -37 -25.5 -64.5t-66.5 -27.5zM362 1577q-40 0 -66 27t-26 65q0 43 28 68.5t64 25.5t64.5 -27t28.5 -67q0 -39 -29 -65.5t-64 -26.5z" />
    <glyph glyph-name="Igrave" unicode="&#xcc;" horiz-adv-x="532" 
d="M463 1473v-15q-29 3 -64.5 -9t-42 -35t-6.5 -109v-1131q0 -92 7.5 -112.5t29 -34t76.5 -13.5v-14h-393v14q74 0 92 28.5t18 129.5v1120q0 105 -20 137.5t-90 28.5v15h393zM76 1884h180l170 -309h-47z" />
    <glyph glyph-name="Iacute" unicode="&#xcd;" horiz-adv-x="532" 
d="M463 1473v-15q-29 3 -64.5 -9t-42 -35t-6.5 -109v-1131q0 -92 7.5 -112.5t29 -34t76.5 -13.5v-14h-393v14q74 0 92 28.5t18 129.5v1120q0 105 -20 137.5t-90 28.5v15h393zM278 1884h180l-303 -309h-47z" />
    <glyph glyph-name="Icircumflex" unicode="&#xce;" horiz-adv-x="532" 
d="M463 1473v-15q-29 3 -64.5 -9t-42 -35t-6.5 -109v-1131q0 -92 7.5 -112.5t29 -34t76.5 -13.5v-14h-393v14q74 0 92 28.5t18 129.5v1120q0 105 -20 137.5t-90 28.5v15h393zM321 1884l264 -309h-45l-272 192l-272 -192h-47l264 309h108z" />
    <glyph glyph-name="Idieresis" unicode="&#xcf;" horiz-adv-x="532" 
d="M552 1473v-15q-29 3 -64.5 -9t-42 -35t-6.5 -109v-1131q0 -92 7.5 -112.5t29 -34t76.5 -13.5v-14h-393v14q74 0 92 28.5t18 129.5v1120q0 105 -20 137.5t-90 28.5v15h393zM550 1577q-39 0 -66 26.5t-27 65.5q0 44 28.5 69t64.5 25q37 0 64.5 -27.5t27.5 -66.5
q0 -37 -25.5 -64.5t-66.5 -27.5zM162 1577q-40 0 -66 27t-26 65q0 43 28 68.5t64 25.5t64.5 -27t28.5 -67q0 -39 -29 -65.5t-64 -26.5z" />
    <glyph glyph-name="Eth" unicode="&#xd0;" horiz-adv-x="1729" 
d="M184 723h-131v41h131v524q0 103 -8 125t-28.5 32.5t-67.5 12.5v15h674q258 0 407.5 -40.5t260.5 -127.5t176 -222.5t65 -302.5q0 -161 -67.5 -316.5t-183.5 -268t-244.5 -154t-397.5 -41.5h-692v14q75 5 90.5 39t15.5 162v508zM885 723h-531v-424q0 -108 36.5 -160.5
t124.5 -76t237 -23.5q420 0 584.5 216t164.5 460q0 295 -229.5 511t-691.5 216h-226v-678h531v-41z" />
    <glyph glyph-name="Ntilde" unicode="&#xd1;" horiz-adv-x="1642" 
d="M1288 1473h285v-15q-65 -2 -90 -27.5t-25 -107.5v-1341l-1175 1251v-1090q0 -52 8 -77t23 -34t75 -18v-14h-283v14q76 0 94.5 27t18.5 129v997q0 131 -36.5 214t-168.5 77v15h277l1104 -1176v1040q0 84 -30 102.5t-77 18.5v15zM1126 1790h41q2 -91 -63.5 -152t-155.5 -61
q-67 0 -147 41t-109 54.5t-62 13.5q-42 0 -72.5 -27.5t-33.5 -81.5h-43q-2 99 62 156t147 57q27 0 60 -9t123.5 -54.5t133.5 -45.5q94 0 119 109z" />
    <glyph glyph-name="Ograve" unicode="&#xd2;" horiz-adv-x="1665" 
d="M893 1495q310 0 507 -188.5t197 -470.5q0 -363 -228 -611t-605 -248q-306 0 -501 200t-195 480q0 189 94 388t283 324.5t448 125.5zM887 55q152 0 300 81.5t233 224.5t85 294q0 214 -114.5 389t-297 274t-337.5 99q-219 0 -397.5 -165t-178.5 -410q0 -313 218 -550
t489 -237zM642 1884h180l170 -309h-47z" />
    <glyph glyph-name="Oacute" unicode="&#xd3;" horiz-adv-x="1665" 
d="M893 1495q310 0 507 -188.5t197 -470.5q0 -363 -228 -611t-605 -248q-306 0 -501 200t-195 480q0 189 94 388t283 324.5t448 125.5zM887 55q152 0 300 81.5t233 224.5t85 294q0 214 -114.5 389t-297 274t-337.5 99q-219 0 -397.5 -165t-178.5 -410q0 -313 218 -550
t489 -237zM844 1884h180l-303 -309h-47z" />
    <glyph glyph-name="Ocircumflex" unicode="&#xd4;" horiz-adv-x="1665" 
d="M893 1495q310 0 507 -188.5t197 -470.5q0 -363 -228 -611t-605 -248q-306 0 -501 200t-195 480q0 189 94 388t283 324.5t448 125.5zM887 55q152 0 300 81.5t233 224.5t85 294q0 214 -114.5 389t-297 274t-337.5 99q-219 0 -397.5 -165t-178.5 -410q0 -313 218 -550
t489 -237zM886 1884l264 -309h-45l-272 192l-272 -192h-47l264 309h108z" />
    <glyph glyph-name="Otilde" unicode="&#xd5;" horiz-adv-x="1665" 
d="M893 1495q310 0 507 -188.5t197 -470.5q0 -363 -228 -611t-605 -248q-306 0 -501 200t-195 480q0 189 94 388t283 324.5t448 125.5zM887 55q152 0 300 81.5t233 224.5t85 294q0 214 -114.5 389t-297 274t-337.5 99q-219 0 -397.5 -165t-178.5 -410q0 -313 218 -550
t489 -237zM1137 1790h41q2 -91 -63.5 -152t-155.5 -61q-67 0 -147 41t-109 54.5t-62 13.5q-42 0 -72.5 -27.5t-33.5 -81.5h-43q-2 99 62 156t147 57q27 0 60 -9t123.5 -54.5t133.5 -45.5q94 0 119 109z" />
    <glyph glyph-name="Odieresis" unicode="&#xd6;" horiz-adv-x="1665" 
d="M893 1495q310 0 507 -188.5t197 -470.5q0 -363 -228 -611t-605 -248q-306 0 -501 200t-195 480q0 189 94 388t283 324.5t448 125.5zM887 55q152 0 300 81.5t233 224.5t85 294q0 214 -114.5 389t-297 274t-337.5 99q-219 0 -397.5 -165t-178.5 -410q0 -313 218 -550
t489 -237zM1027 1577q-39 0 -66 26.5t-27 65.5q0 44 28.5 69t64.5 25q37 0 64.5 -27.5t27.5 -66.5q0 -37 -25.5 -64.5t-66.5 -27.5zM639 1577q-40 0 -66 27t-26 65q0 43 28 68.5t64 25.5t64.5 -27t28.5 -67q0 -39 -29 -65.5t-64 -26.5z" />
    <glyph glyph-name="multiply" unicode="&#xd7;" horiz-adv-x="1124" 
d="M137 893l78 78l342 -340l342 344l80 -80l-344 -344l352 -352l-78 -78l-352 352l-344 -344l-80 80l344 342z" />
    <glyph glyph-name="Oslash" unicode="&#xd8;" horiz-adv-x="1665" 
d="M1350 1352l129 145l28 -24l-129 -146q74 -64 146.5 -184t72.5 -309q0 -222 -99.5 -424.5t-290.5 -318.5t-443 -116q-262 0 -445 150q-2 0 -2 2l-133 -152l-30 25l133 152q-219 198 -219 503q0 195 96 393.5t284.5 323.5t444.5 125q267 0 457 -145zM403 283l830 936
q-2 4 -6 4q-243 194 -469 194q-132 0 -270 -71.5t-223 -205.5t-85 -302q0 -303 223 -555zM1262 1194l-830 -938q101 -103 220.5 -154t236.5 -51q242 0 429 178.5t187 438.5q0 299 -243 526z" />
    <glyph glyph-name="Ugrave" unicode="&#xd9;" horiz-adv-x="1536" 
d="M1452 0h-278v227q-213 -237 -508 -237q-219 0 -347.5 123t-128.5 340v882q0 80 -19 101.5t-89 21.5v15h391v-15q-62 0 -87.5 -19.5t-25.5 -92.5v-809q0 -254 119 -362.5t271 -108.5q239 0 424 215v997q0 131 -23 155.5t-72 24.5h-14v15h387v-15q-72 -4 -90.5 -24
t-18.5 -76v-1200q0 -71 7 -93t28.5 -36.5t73.5 -14.5v-14zM578 1884h180l170 -309h-47z" />
    <glyph glyph-name="Uacute" unicode="&#xda;" horiz-adv-x="1536" 
d="M1452 0h-278v227q-213 -237 -508 -237q-219 0 -347.5 123t-128.5 340v882q0 80 -19 101.5t-89 21.5v15h391v-15q-62 0 -87.5 -19.5t-25.5 -92.5v-809q0 -254 119 -362.5t271 -108.5q239 0 424 215v997q0 131 -23 155.5t-72 24.5h-14v15h387v-15q-72 -4 -90.5 -24
t-18.5 -76v-1200q0 -71 7 -93t28.5 -36.5t73.5 -14.5v-14zM780 1884h180l-303 -309h-47z" />
    <glyph glyph-name="Ucircumflex" unicode="&#xdb;" horiz-adv-x="1536" 
d="M1452 0h-278v227q-213 -237 -508 -237q-219 0 -347.5 123t-128.5 340v882q0 80 -19 101.5t-89 21.5v15h391v-15q-62 0 -87.5 -19.5t-25.5 -92.5v-809q0 -254 119 -362.5t271 -108.5q239 0 424 215v997q0 131 -23 155.5t-72 24.5h-14v15h387v-15q-72 -4 -90.5 -24
t-18.5 -76v-1200q0 -71 7 -93t28.5 -36.5t73.5 -14.5v-14zM823 1884l264 -309h-45l-272 192l-272 -192h-47l264 309h108z" />
    <glyph glyph-name="Udieresis" unicode="&#xdc;" horiz-adv-x="1536" 
d="M1452 0h-278v227q-213 -237 -508 -237q-219 0 -347.5 123t-128.5 340v882q0 80 -19 101.5t-89 21.5v15h391v-15q-62 0 -87.5 -19.5t-25.5 -92.5v-809q0 -254 119 -362.5t271 -108.5q239 0 424 215v997q0 131 -23 155.5t-72 24.5h-14v15h387v-15q-72 -4 -90.5 -24
t-18.5 -76v-1200q0 -71 7 -93t28.5 -36.5t73.5 -14.5v-14zM963 1577q-39 0 -66 26.5t-27 65.5q0 44 28.5 69t64.5 25q37 0 64.5 -27.5t27.5 -66.5q0 -37 -25.5 -64.5t-66.5 -27.5zM575 1577q-40 0 -66 27t-26 65q0 43 28 68.5t64 25.5t64.5 -27t28.5 -67q0 -39 -29 -65.5
t-64 -26.5z" />
    <glyph glyph-name="Yacute" unicode="&#xdd;" horiz-adv-x="1174" 
d="M940 1473h221v-15q-42 -3 -69 -20t-62 -70l-360 -545v-676q0 -82 21 -107.5t91 -25.5v-14h-393v14q113 -7 113 89l-2 42v623l-361 598q-57 95 -127 92v15h348v-15q-49 0 -49 -37q0 -19 25 -59l297 -490l325 494q9 8 20 29.5t11 29.5q0 33 -43 33h-6v15zM598 1884h180
l-303 -309h-47z" />
    <glyph glyph-name="Thorn" unicode="&#xde;" horiz-adv-x="1087" 
d="M463 1473v-15q-56 -3 -81.5 -22t-25.5 -103v-213h201q197 0 331 -65t134 -258q0 -87 -41 -171t-124.5 -155.5t-163.5 -95t-218 -23.5h-119v-211q0 -75 21.5 -101t85.5 -26v-14h-381v14q57 0 80.5 21t23.5 119v1171q0 73 -17 101.5t-87 31.5v15h381zM356 1081v-690h154
q65 0 153.5 21.5t146.5 101.5t58 191q0 91 -42.5 184.5t-121 142.5t-227.5 49h-121z" />
    <glyph glyph-name="germandbls" unicode="&#xdf;" horiz-adv-x="1962" 
d="M786 1454l70 -184l-12 -2q0 1 -5 6l-10 10q-74 88 -152 126t-177 38q-152 0 -240 -87t-88 -208q0 -76 41 -139.5t176 -114.5q220 -76 286 -103t131.5 -84.5t97.5 -128.5t32 -165q0 -85 -26 -155.5t-85 -133.5t-111 -85.5t-158.5 -33t-111.5 -10.5h-393v428h15
q2 -213 100 -297t305 -84q189 0 286 89t97 214q0 80 -40 139t-108 96.5t-229 93t-227 102.5t-110 132t-44 181q0 169 117.5 285t308.5 116q87 0 175 -19t89 -22zM1767 1454l70 -184l-12 -2q0 1 -5 6l-10 10q-74 88 -152 126t-177 38q-152 0 -240 -87t-88 -208
q0 -76 41 -139.5t176 -114.5q220 -76 286 -103t131.5 -84.5t97.5 -128.5t32 -165q0 -85 -26 -155.5t-85 -133.5t-111 -85.5t-158.5 -33t-111.5 -10.5h-393v428h15q2 -213 100 -297t305 -84q189 0 286 89t97 214q0 80 -40 139t-108 96.5t-229 93t-227 102.5t-110 132t-44 181
q0 169 117.5 285t308.5 116q87 0 175 -19t89 -22z" />
    <glyph glyph-name="agrave" unicode="&#xe0;" horiz-adv-x="1409" 
d="M856 678h-430l-223 -557q-23 -60 -23 -74q0 -33 49 -33v-14h-219v14q44 0 74 21.5t66 111.5l534 1348h25l526 -1302q0 -10 40.5 -94.5t123.5 -84.5v-14h-344v14q47 0 47 37q0 25 -23 80q-4 4 -7 13q-2 10 -3 10zM440 719h398l-199 502zM514 1884h180l170 -309h-47z" />
    <glyph glyph-name="aacute" unicode="&#xe1;" horiz-adv-x="1409" 
d="M856 678h-430l-223 -557q-23 -60 -23 -74q0 -33 49 -33v-14h-219v14q44 0 74 21.5t66 111.5l534 1348h25l526 -1302q0 -10 40.5 -94.5t123.5 -84.5v-14h-344v14q47 0 47 37q0 25 -23 80q-4 4 -7 13q-2 10 -3 10zM440 719h398l-199 502zM717 1884h180l-303 -309h-47z" />
    <glyph glyph-name="acircumflex" unicode="&#xe2;" horiz-adv-x="1409" 
d="M856 678h-430l-223 -557q-23 -60 -23 -74q0 -33 49 -33v-14h-219v14q44 0 74 21.5t66 111.5l534 1348h25l526 -1302q0 -10 40.5 -94.5t123.5 -84.5v-14h-344v14q47 0 47 37q0 25 -23 80q-4 4 -7 13q-2 10 -3 10zM440 719h398l-199 502zM759 1884l264 -309h-45l-272 192
l-272 -192h-47l264 309h108z" />
    <glyph glyph-name="atilde" unicode="&#xe3;" horiz-adv-x="1409" 
d="M856 678h-430l-223 -557q-23 -60 -23 -74q0 -33 49 -33v-14h-219v14q44 0 74 21.5t66 111.5l534 1348h25l526 -1302q0 -10 40.5 -94.5t123.5 -84.5v-14h-344v14q47 0 47 37q0 25 -23 80q-4 4 -7 13q-2 10 -3 10zM440 719h398l-199 502zM1010 1790h41q2 -91 -63.5 -152
t-155.5 -61q-67 0 -147 41t-109 54.5t-62 13.5q-42 0 -72.5 -27.5t-33.5 -81.5h-43q-2 99 62 156t147 57q27 0 60 -9t123.5 -54.5t133.5 -45.5q94 0 119 109z" />
    <glyph glyph-name="adieresis" unicode="&#xe4;" horiz-adv-x="1409" 
d="M856 678h-430l-223 -557q-23 -60 -23 -74q0 -33 49 -33v-14h-219v14q44 0 74 21.5t66 111.5l534 1348h25l526 -1302q0 -10 40.5 -94.5t123.5 -84.5v-14h-344v14q47 0 47 37q0 25 -23 80q-4 4 -7 13q-2 10 -3 10zM440 719h398l-199 502zM900 1577q-39 0 -66 26.5t-27 65.5
q0 44 28.5 69t64.5 25q37 0 64.5 -27.5t27.5 -66.5q0 -37 -25.5 -64.5t-66.5 -27.5zM512 1577q-40 0 -66 27t-26 65q0 43 28 68.5t64 25.5t64.5 -27t28.5 -67q0 -39 -29 -65.5t-64 -26.5z" />
    <glyph glyph-name="aring" unicode="&#xe5;" horiz-adv-x="1409" 
d="M856 678h-430l-223 -557q-23 -60 -23 -74q0 -33 49 -33v-14h-219v14q44 0 74 21.5t66 111.5l534 1348h25l526 -1302q0 -10 40.5 -94.5t123.5 -84.5v-14h-344v14q47 0 47 37q0 25 -23 80q-4 4 -7 13q-2 10 -3 10zM440 719h398l-199 502zM705 1575q-66 0 -114 47.5
t-48 116.5q0 66 47 114t115 48q67 0 115.5 -46.5t48.5 -115.5q0 -67 -46 -115.5t-118 -48.5zM705 1855q-46 0 -81.5 -34t-35.5 -82q0 -47 35 -82t82 -35q51 0 85 34t34 83q0 50 -34.5 83t-84.5 33z" />
    <glyph glyph-name="ae" unicode="&#xe6;" horiz-adv-x="1772" 
d="M854 725h-336l-328 -631q-14 -26 -14 -43q0 -38 49 -35v-16h-217v16q67 4 109 70l725 1387h827v-205h-14q-26 106 -49 130.5t-101 24.5h-481v-657h438q66 0 87.5 8.5t25.5 40.5h14v-141h-14q-1 39 -44 45t-95 6h-412v-385q0 -197 36 -244t138 -47h322q93 0 129.5 11.5
t59 43.5t30.5 95h14v-199h-1003v14q68 -3 84.5 30t17.5 110l2 112v459zM541 766h313v602h-4z" />
    <glyph glyph-name="ccedilla" unicode="&#xe7;" horiz-adv-x="1579" 
d="M874 -20l-28 -56q143 -46 143 -157q0 -95 -98.5 -156.5t-257.5 -52.5v41q158 5 205 46.5t47 84.5q0 97 -158 106q64 94 96 144q-384 20 -566.5 232.5t-182.5 492.5q0 202 102.5 388.5t295.5 294t441 107.5q156 0 262 -36l169 -58q3 -1 4 -2l55 -156h-14
q-78 80 -203.5 146.5t-300.5 66.5q-201 0 -357 -85t-235.5 -229t-79.5 -298q0 -157 82.5 -361t260.5 -335.5t431 -131.5q165 0 324.5 52.5t238.5 144.5l13 -4l-103 -158q-243 -53 -346.5 -65t-239.5 -6z" />
    <glyph glyph-name="egrave" unicode="&#xe8;" 
d="M80 1456v17h926v-203h-15q-30 113 -50.5 133t-100.5 20h-486v-661h451q67 0 85 12.5t19 36.5h15v-139h-15q-5 29 -23.5 39t-68.5 10h-463v-455q0 -103 19 -148.5t60.5 -57t125.5 -11.5h260q124 0 158.5 8.5t58.5 34t37 111.5h14v-203h-1007v14q51 3 77.5 19.5t26.5 85.5
v1190q0 81 -14 114t-90 33zM365 1884h180l170 -309h-47z" />
    <glyph glyph-name="eacute" unicode="&#xe9;" 
d="M80 1456v17h926v-203h-15q-30 113 -50.5 133t-100.5 20h-486v-661h451q67 0 85 12.5t19 36.5h15v-139h-15q-5 29 -23.5 39t-68.5 10h-463v-455q0 -103 19 -148.5t60.5 -57t125.5 -11.5h260q124 0 158.5 8.5t58.5 34t37 111.5h14v-203h-1007v14q51 3 77.5 19.5t26.5 85.5
v1190q0 81 -14 114t-90 33zM608 1884h180l-303 -309h-47z" />
    <glyph glyph-name="ecircumflex" unicode="&#xea;" 
d="M80 1456v17h926v-203h-15q-30 113 -50.5 133t-100.5 20h-486v-661h451q67 0 85 12.5t19 36.5h15v-139h-15q-5 29 -23.5 39t-68.5 10h-463v-455q0 -103 19 -148.5t60.5 -57t125.5 -11.5h260q124 0 158.5 8.5t58.5 34t37 111.5h14v-203h-1007v14q51 3 77.5 19.5t26.5 85.5
v1190q0 81 -14 114t-90 33zM611 1884l264 -309h-45l-272 192l-272 -192h-47l264 309h108z" />
    <glyph glyph-name="edieresis" unicode="&#xeb;" 
d="M80 1456v17h926v-203h-15q-30 113 -50.5 133t-100.5 20h-486v-661h451q67 0 85 12.5t19 36.5h15v-139h-15q-5 29 -23.5 39t-68.5 10h-463v-455q0 -103 19 -148.5t60.5 -57t125.5 -11.5h260q124 0 158.5 8.5t58.5 34t37 111.5h14v-203h-1007v14q51 3 77.5 19.5t26.5 85.5
v1190q0 81 -14 114t-90 33zM750 1577q-39 0 -66 26.5t-27 65.5q0 44 28.5 69t64.5 25q37 0 64.5 -27.5t27.5 -66.5q0 -37 -25.5 -64.5t-66.5 -27.5zM362 1577q-40 0 -66 27t-26 65q0 43 28 68.5t64 25.5t64.5 -27t28.5 -67q0 -39 -29 -65.5t-64 -26.5z" />
    <glyph glyph-name="igrave" unicode="&#xec;" horiz-adv-x="532" 
d="M463 1473v-15q-29 3 -64.5 -9t-42 -35t-6.5 -109v-1131q0 -92 7.5 -112.5t29 -34t76.5 -13.5v-14h-393v14q74 0 92 28.5t18 129.5v1120q0 105 -20 137.5t-90 28.5v15h393zM76 1884h180l170 -309h-47z" />
    <glyph glyph-name="iacute" unicode="&#xed;" horiz-adv-x="532" 
d="M463 1473v-15q-29 3 -64.5 -9t-42 -35t-6.5 -109v-1131q0 -92 7.5 -112.5t29 -34t76.5 -13.5v-14h-393v14q74 0 92 28.5t18 129.5v1120q0 105 -20 137.5t-90 28.5v15h393zM278 1884h180l-303 -309h-47z" />
    <glyph glyph-name="icircumflex" unicode="&#xee;" horiz-adv-x="532" 
d="M463 1473v-15q-29 3 -64.5 -9t-42 -35t-6.5 -109v-1131q0 -92 7.5 -112.5t29 -34t76.5 -13.5v-14h-393v14q74 0 92 28.5t18 129.5v1120q0 105 -20 137.5t-90 28.5v15h393zM321 1884l264 -309h-45l-272 192l-272 -192h-47l264 309h108z" />
    <glyph glyph-name="idieresis" unicode="&#xef;" horiz-adv-x="532" 
d="M552 1473v-15q-29 3 -64.5 -9t-42 -35t-6.5 -109v-1131q0 -92 7.5 -112.5t29 -34t76.5 -13.5v-14h-393v14q74 0 92 28.5t18 129.5v1120q0 105 -20 137.5t-90 28.5v15h393zM550 1577q-39 0 -66 26.5t-27 65.5q0 44 28.5 69t64.5 25q37 0 64.5 -27.5t27.5 -66.5
q0 -37 -25.5 -64.5t-66.5 -27.5zM162 1577q-40 0 -66 27t-26 65q0 43 28 68.5t64 25.5t64.5 -27t28.5 -67q0 -39 -29 -65.5t-64 -26.5z" />
    <glyph glyph-name="eth" unicode="&#xf0;" horiz-adv-x="1729" 
d="M184 723h-131v41h131v524q0 103 -8 125t-28.5 32.5t-67.5 12.5v15h674q258 0 407.5 -40.5t260.5 -127.5t176 -222.5t65 -302.5q0 -161 -67.5 -316.5t-183.5 -268t-244.5 -154t-397.5 -41.5h-692v14q75 5 90.5 39t15.5 162v508zM885 723h-531v-424q0 -108 36.5 -160.5
t124.5 -76t237 -23.5q420 0 584.5 216t164.5 460q0 295 -229.5 511t-691.5 216h-226v-678h531v-41z" />
    <glyph glyph-name="ntilde" unicode="&#xf1;" horiz-adv-x="1642" 
d="M1288 1473h285v-15q-65 -2 -90 -27.5t-25 -107.5v-1341l-1175 1251v-1090q0 -52 8 -77t23 -34t75 -18v-14h-283v14q76 0 94.5 27t18.5 129v997q0 131 -36.5 214t-168.5 77v15h277l1104 -1176v1040q0 84 -30 102.5t-77 18.5v15zM1126 1790h41q2 -91 -63.5 -152t-155.5 -61
q-67 0 -147 41t-109 54.5t-62 13.5q-42 0 -72.5 -27.5t-33.5 -81.5h-43q-2 99 62 156t147 57q27 0 60 -9t123.5 -54.5t133.5 -45.5q94 0 119 109z" />
    <glyph glyph-name="ograve" unicode="&#xf2;" horiz-adv-x="1665" 
d="M893 1495q310 0 507 -188.5t197 -470.5q0 -363 -228 -611t-605 -248q-306 0 -501 200t-195 480q0 189 94 388t283 324.5t448 125.5zM887 55q152 0 300 81.5t233 224.5t85 294q0 214 -114.5 389t-297 274t-337.5 99q-219 0 -397.5 -165t-178.5 -410q0 -313 218 -550
t489 -237zM642 1884h180l170 -309h-47z" />
    <glyph glyph-name="oacute" unicode="&#xf3;" horiz-adv-x="1665" 
d="M893 1495q310 0 507 -188.5t197 -470.5q0 -363 -228 -611t-605 -248q-306 0 -501 200t-195 480q0 189 94 388t283 324.5t448 125.5zM887 55q152 0 300 81.5t233 224.5t85 294q0 214 -114.5 389t-297 274t-337.5 99q-219 0 -397.5 -165t-178.5 -410q0 -313 218 -550
t489 -237zM844 1884h180l-303 -309h-47z" />
    <glyph glyph-name="ocircumflex" unicode="&#xf4;" horiz-adv-x="1665" 
d="M893 1495q310 0 507 -188.5t197 -470.5q0 -363 -228 -611t-605 -248q-306 0 -501 200t-195 480q0 189 94 388t283 324.5t448 125.5zM887 55q152 0 300 81.5t233 224.5t85 294q0 214 -114.5 389t-297 274t-337.5 99q-219 0 -397.5 -165t-178.5 -410q0 -313 218 -550
t489 -237zM886 1884l264 -309h-45l-272 192l-272 -192h-47l264 309h108z" />
    <glyph glyph-name="otilde" unicode="&#xf5;" horiz-adv-x="1665" 
d="M893 1495q310 0 507 -188.5t197 -470.5q0 -363 -228 -611t-605 -248q-306 0 -501 200t-195 480q0 189 94 388t283 324.5t448 125.5zM887 55q152 0 300 81.5t233 224.5t85 294q0 214 -114.5 389t-297 274t-337.5 99q-219 0 -397.5 -165t-178.5 -410q0 -313 218 -550
t489 -237zM1137 1790h41q2 -91 -63.5 -152t-155.5 -61q-67 0 -147 41t-109 54.5t-62 13.5q-42 0 -72.5 -27.5t-33.5 -81.5h-43q-2 99 62 156t147 57q27 0 60 -9t123.5 -54.5t133.5 -45.5q94 0 119 109z" />
    <glyph glyph-name="odieresis" unicode="&#xf6;" horiz-adv-x="1665" 
d="M893 1495q310 0 507 -188.5t197 -470.5q0 -363 -228 -611t-605 -248q-306 0 -501 200t-195 480q0 189 94 388t283 324.5t448 125.5zM887 55q152 0 300 81.5t233 224.5t85 294q0 214 -114.5 389t-297 274t-337.5 99q-219 0 -397.5 -165t-178.5 -410q0 -313 218 -550
t489 -237zM1027 1577q-39 0 -66 26.5t-27 65.5q0 44 28.5 69t64.5 25q37 0 64.5 -27.5t27.5 -66.5q0 -37 -25.5 -64.5t-66.5 -27.5zM639 1577q-40 0 -66 27t-26 65q0 43 28 68.5t64 25.5t64.5 -27t28.5 -67q0 -39 -29 -65.5t-64 -26.5z" />
    <glyph glyph-name="divide" unicode="&#xf7;" horiz-adv-x="1124" 
d="M549 705q-43 0 -79 33t-36 81q0 49 33 82t82 33q51 0 83 -36t32 -79q0 -48 -36 -81t-79 -33zM20 483v113h1078v-113h-1078zM549 145q-49 0 -82 34.5t-33 80.5q0 49 33 82t82 33q51 0 83 -36t32 -79q0 -49 -33 -82t-82 -33z" />
    <glyph glyph-name="oslash" unicode="&#xf8;" horiz-adv-x="1665" 
d="M1350 1352l129 145l28 -24l-129 -146q74 -64 146.5 -184t72.5 -309q0 -222 -99.5 -424.5t-290.5 -318.5t-443 -116q-262 0 -445 150q-2 0 -2 2l-133 -152l-30 25l133 152q-219 198 -219 503q0 195 96 393.5t284.5 323.5t444.5 125q267 0 457 -145zM403 283l830 936
q-2 4 -6 4q-243 194 -469 194q-132 0 -270 -71.5t-223 -205.5t-85 -302q0 -303 223 -555zM1262 1194l-830 -938q101 -103 220.5 -154t236.5 -51q242 0 429 178.5t187 438.5q0 299 -243 526z" />
    <glyph glyph-name="ugrave" unicode="&#xf9;" horiz-adv-x="1536" 
d="M1452 0h-278v227q-213 -237 -508 -237q-219 0 -347.5 123t-128.5 340v882q0 80 -19 101.5t-89 21.5v15h391v-15q-62 0 -87.5 -19.5t-25.5 -92.5v-809q0 -254 119 -362.5t271 -108.5q239 0 424 215v997q0 131 -23 155.5t-72 24.5h-14v15h387v-15q-72 -4 -90.5 -24
t-18.5 -76v-1200q0 -71 7 -93t28.5 -36.5t73.5 -14.5v-14zM578 1884h180l170 -309h-47z" />
    <glyph glyph-name="uacute" unicode="&#xfa;" horiz-adv-x="1536" 
d="M1452 0h-278v227q-213 -237 -508 -237q-219 0 -347.5 123t-128.5 340v882q0 80 -19 101.5t-89 21.5v15h391v-15q-62 0 -87.5 -19.5t-25.5 -92.5v-809q0 -254 119 -362.5t271 -108.5q239 0 424 215v997q0 131 -23 155.5t-72 24.5h-14v15h387v-15q-72 -4 -90.5 -24
t-18.5 -76v-1200q0 -71 7 -93t28.5 -36.5t73.5 -14.5v-14zM780 1884h180l-303 -309h-47z" />
    <glyph glyph-name="ucircumflex" unicode="&#xfb;" horiz-adv-x="1536" 
d="M1452 0h-278v227q-213 -237 -508 -237q-219 0 -347.5 123t-128.5 340v882q0 80 -19 101.5t-89 21.5v15h391v-15q-62 0 -87.5 -19.5t-25.5 -92.5v-809q0 -254 119 -362.5t271 -108.5q239 0 424 215v997q0 131 -23 155.5t-72 24.5h-14v15h387v-15q-72 -4 -90.5 -24
t-18.5 -76v-1200q0 -71 7 -93t28.5 -36.5t73.5 -14.5v-14zM823 1884l264 -309h-45l-272 192l-272 -192h-47l264 309h108z" />
    <glyph glyph-name="udieresis" unicode="&#xfc;" horiz-adv-x="1536" 
d="M1452 0h-278v227q-213 -237 -508 -237q-219 0 -347.5 123t-128.5 340v882q0 80 -19 101.5t-89 21.5v15h391v-15q-62 0 -87.5 -19.5t-25.5 -92.5v-809q0 -254 119 -362.5t271 -108.5q239 0 424 215v997q0 131 -23 155.5t-72 24.5h-14v15h387v-15q-72 -4 -90.5 -24
t-18.5 -76v-1200q0 -71 7 -93t28.5 -36.5t73.5 -14.5v-14zM963 1577q-39 0 -66 26.5t-27 65.5q0 44 28.5 69t64.5 25q37 0 64.5 -27.5t27.5 -66.5q0 -37 -25.5 -64.5t-66.5 -27.5zM575 1577q-40 0 -66 27t-26 65q0 43 28 68.5t64 25.5t64.5 -27t28.5 -67q0 -39 -29 -65.5
t-64 -26.5z" />
    <glyph glyph-name="yacute" unicode="&#xfd;" horiz-adv-x="1174" 
d="M940 1473h221v-15q-42 -3 -69 -20t-62 -70l-360 -545v-676q0 -82 21 -107.5t91 -25.5v-14h-393v14q113 -7 113 89l-2 42v623l-361 598q-57 95 -127 92v15h348v-15q-49 0 -49 -37q0 -19 25 -59l297 -490l325 494q9 8 20 29.5t11 29.5q0 33 -43 33h-6v15zM598 1884h180
l-303 -309h-47z" />
    <glyph glyph-name="thorn" unicode="&#xfe;" horiz-adv-x="1087" 
d="M463 1473v-15q-56 -3 -81.5 -22t-25.5 -103v-213h201q197 0 331 -65t134 -258q0 -87 -41 -171t-124.5 -155.5t-163.5 -95t-218 -23.5h-119v-211q0 -75 21.5 -101t85.5 -26v-14h-381v14q57 0 80.5 21t23.5 119v1171q0 73 -17 101.5t-87 31.5v15h381zM356 1081v-690h154
q65 0 153.5 21.5t146.5 101.5t58 191q0 91 -42.5 184.5t-121 142.5t-227.5 49h-121z" />
    <glyph glyph-name="ydieresis" unicode="&#xff;" horiz-adv-x="1174" 
d="M940 1473h221v-15q-42 -3 -69 -20t-62 -70l-360 -545v-676q0 -82 21 -107.5t91 -25.5v-14h-393v14q113 -7 113 89l-2 42v623l-361 598q-57 95 -127 92v15h348v-15q-49 0 -49 -37q0 -19 25 -59l297 -490l325 494q9 8 20 29.5t11 29.5q0 33 -43 33h-6v15zM781 1577
q-39 0 -66 26.5t-27 65.5q0 44 28.5 69t64.5 25q37 0 64.5 -27.5t27.5 -66.5q0 -37 -25.5 -64.5t-66.5 -27.5zM393 1577q-40 0 -66 27t-26 65q0 43 28 68.5t64 25.5t64.5 -27t28.5 -67q0 -39 -29 -65.5t-64 -26.5z" />
    <glyph glyph-name="dotlessi" unicode="&#x131;" horiz-adv-x="532" 
d="M463 1473v-15q-29 3 -64.5 -9t-42 -35t-6.5 -109v-1131q0 -92 7.5 -112.5t29 -34t76.5 -13.5v-14h-393v14q74 0 92 28.5t18 129.5v1120q0 105 -20 137.5t-90 28.5v15h393z" />
    <glyph glyph-name="Lslash" unicode="&#x141;" 
d="M25 0v12q72 0 90 29t18 88v420l-127 -115v53l127 115v733q0 64 -16 92.5t-94 30.5v15h395v-15q-53 0 -76.5 -13t-31 -34.5t-7.5 -85.5v-569l356 317v-53l-356 -318v-411q0 -133 64.5 -187.5t220.5 -54.5h180q129 0 189 64t69 241h14v-354h-1015z" />
    <glyph glyph-name="lslash" unicode="&#x142;" 
d="M25 0v12q72 0 90 29t18 88v420l-127 -115v53l127 115v733q0 64 -16 92.5t-94 30.5v15h395v-15q-53 0 -76.5 -13t-31 -34.5t-7.5 -85.5v-569l356 317v-53l-356 -318v-411q0 -133 64.5 -187.5t220.5 -54.5h180q129 0 189 64t69 241h14v-354h-1015z" />
    <glyph glyph-name="OE" unicode="&#x152;" horiz-adv-x="2028" 
d="M1845 811v-139h-12q-6 35 -28 42t-70 7h-457v-432q0 -126 12.5 -164t52.5 -57t158 -19h311q83 0 126.5 26.5t56.5 127.5h12v-203h-1124q-299 0 -460.5 92.5t-255 256t-93.5 358.5q0 154 47.5 276.5t175 254.5t265.5 183.5t331 51.5h1036v-203h-14q-21 103 -42.5 128
t-113.5 25h-481v-661h475q73 0 80 49h12zM1108 262v983q0 81 -8 118.5t-32.5 54t-109.5 16.5q-160 0 -273 -31t-211.5 -107t-161 -211.5t-62.5 -314.5q0 -324 192.5 -527.5t483.5 -203.5h37q94 0 119.5 54t25.5 169z" />
    <glyph glyph-name="oe" unicode="&#x153;" horiz-adv-x="2028" 
d="M1845 811v-139h-12q-6 35 -28 42t-70 7h-457v-432q0 -126 12.5 -164t52.5 -57t158 -19h311q83 0 126.5 26.5t56.5 127.5h12v-203h-1124q-299 0 -460.5 92.5t-255 256t-93.5 358.5q0 154 47.5 276.5t175 254.5t265.5 183.5t331 51.5h1036v-203h-14q-21 103 -42.5 128
t-113.5 25h-481v-661h475q73 0 80 49h12zM1108 262v983q0 81 -8 118.5t-32.5 54t-109.5 16.5q-160 0 -273 -31t-211.5 -107t-161 -211.5t-62.5 -314.5q0 -324 192.5 -527.5t483.5 -203.5h37q94 0 119.5 54t25.5 169z" />
    <glyph glyph-name="Scaron" unicode="&#x160;" horiz-adv-x="981" 
d="M786 1454l70 -184l-12 -2q0 1 -55.5 59t-127 89.5t-161.5 31.5q-151 0 -239.5 -86.5t-88.5 -208.5q0 -81 41.5 -141.5t173.5 -112.5q227 -76 310.5 -114.5t161 -130.5t77.5 -236q0 -60 -14 -114.5t-45 -105t-74.5 -92t-88.5 -63t-142 -32.5t-128 -11h-393v428h15
q2 -213 100 -297t305 -84q188 0 285.5 89t97.5 214q0 76 -34 129.5t-95 94t-231 98.5q-169 59 -237.5 103.5t-114.5 134t-46 182.5q0 171 117.5 287t308.5 116q74 0 160 -17t96 -22q4 -2 8 -2zM437 1575l-264 309h45l272 -192l272 192h47l-264 -309h-108z" />
    <glyph glyph-name="scaron" unicode="&#x161;" horiz-adv-x="981" 
d="M786 1454l70 -184l-12 -2q0 1 -55.5 59t-127 89.5t-161.5 31.5q-151 0 -239.5 -86.5t-88.5 -208.5q0 -81 41.5 -141.5t173.5 -112.5q227 -76 310.5 -114.5t161 -130.5t77.5 -236q0 -60 -14 -114.5t-45 -105t-74.5 -92t-88.5 -63t-142 -32.5t-128 -11h-393v428h15
q2 -213 100 -297t305 -84q188 0 285.5 89t97.5 214q0 76 -34 129.5t-95 94t-231 98.5q-169 59 -237.5 103.5t-114.5 134t-46 182.5q0 171 117.5 287t308.5 116q74 0 160 -17t96 -22q4 -2 8 -2zM437 1575l-264 309h45l272 -192l272 192h47l-264 -309h-108z" />
    <glyph glyph-name="Ydieresis" unicode="&#x178;" horiz-adv-x="1174" 
d="M940 1473h221v-15q-42 -3 -69 -20t-62 -70l-360 -545v-676q0 -82 21 -107.5t91 -25.5v-14h-393v14q113 -7 113 89l-2 42v623l-361 598q-57 95 -127 92v15h348v-15q-49 0 -49 -37q0 -19 25 -59l297 -490l325 494q9 8 20 29.5t11 29.5q0 33 -43 33h-6v15zM781 1577
q-39 0 -66 26.5t-27 65.5q0 44 28.5 69t64.5 25q37 0 64.5 -27.5t27.5 -66.5q0 -37 -25.5 -64.5t-66.5 -27.5zM393 1577q-40 0 -66 27t-26 65q0 43 28 68.5t64 25.5t64.5 -27t28.5 -67q0 -39 -29 -65.5t-64 -26.5z" />
    <glyph glyph-name="Zcaron" unicode="&#x17d;" horiz-adv-x="1450" 
d="M1411 231v-231h-1397l1143 1417h-766q-95 0 -130.5 -24.5t-49.5 -120.5h-14l8 201h1212l-1147 -1418h977q85 0 114.5 35t35.5 141h14zM672 1575l-264 309h45l272 -192l272 192h47l-264 -309h-108z" />
    <glyph glyph-name="zcaron" unicode="&#x17e;" horiz-adv-x="1450" 
d="M1411 231v-231h-1397l1143 1417h-766q-95 0 -130.5 -24.5t-49.5 -120.5h-14l8 201h1212l-1147 -1418h977q85 0 114.5 35t35.5 141h14zM672 1575l-264 309h45l272 -192l272 192h47l-264 -309h-108z" />
    <glyph glyph-name="florin" unicode="&#x192;" 
d="M905 891v-43h-254l-69 -801q-21 -234 -93.5 -372t-269.5 -138q-110 0 -209 39l2 266h13q17 -133 67.5 -198.5t118.5 -65.5q107 0 150 106t57 265l76 899h-170v43h174l14 156q20 261 105 356.5t233 95.5q94 0 215 -57l25 -201h-17q-71 215 -215 215q-77 0 -115.5 -51.5
t-51 -126.5t-19.5 -166l-19 -221h252z" />
    <glyph glyph-name="circumflex" unicode="&#x2c6;" horiz-adv-x="682" 
d="M395 1884l264 -309h-45l-272 192l-272 -192h-47l264 309h108z" />
    <glyph glyph-name="caron" unicode="&#x2c7;" horiz-adv-x="682" 
d="M287 1575l-264 309h45l272 -192l272 192h47l-264 -309h-108z" />
    <glyph glyph-name="macron" unicode="&#x2c9;" horiz-adv-x="682" 
d="M770 1778v-74h-819v74h819z" />
    <glyph glyph-name="breve" unicode="&#x2d8;" horiz-adv-x="682" 
d="M598 1866h43q-11 -137 -97.5 -213t-201.5 -76q-116 0 -202.5 78.5t-96.5 210.5h43q20 -80 87 -125t169 -45q105 0 172 48.5t84 121.5z" />
    <glyph glyph-name="dotaccent" unicode="&#x2d9;" horiz-adv-x="682" 
d="M342 1577q-39 0 -65.5 26.5t-26.5 65.5q0 44 28.5 69t63.5 25q38 0 65 -28t27 -66q0 -37 -27 -64.5t-65 -27.5z" />
    <glyph glyph-name="ring" unicode="&#x2da;" horiz-adv-x="682" 
d="M340 1575q-66 0 -114 47.5t-48 116.5q0 66 47 114t115 48q67 0 115.5 -46.5t48.5 -115.5q0 -67 -46 -115.5t-118 -48.5zM340 1855q-46 0 -81.5 -34t-35.5 -82q0 -47 35 -82t82 -35q51 0 85 34t34 83q0 50 -34.5 83t-84.5 33z" />
    <glyph glyph-name="ogonek" unicode="&#x2db;" horiz-adv-x="682" 
d="M319 12h52q-54 -55 -80.5 -101.5t-26.5 -111.5q0 -90 48 -140t108 -50q30 0 76 16l16 -33q-79 -41 -145 -41q-102 0 -151.5 61.5t-49.5 135.5q0 67 36.5 125.5t116.5 138.5z" />
    <glyph glyph-name="tilde" unicode="&#x2dc;" horiz-adv-x="682" 
d="M645 1790h41q2 -91 -63.5 -152t-155.5 -61q-67 0 -147 41t-109 54.5t-62 13.5q-42 0 -72.5 -27.5t-33.5 -81.5h-43q-2 99 62 156t147 57q27 0 60 -9t123.5 -54.5t133.5 -45.5q94 0 119 109z" />
    <glyph glyph-name="hungarumlaut" unicode="&#x2dd;" horiz-adv-x="682" 
d="M238 1884h180l-303 -309h-47zM520 1884h180l-303 -309h-47z" />
    <glyph glyph-name="pi1" unicode="&#x3c0;" horiz-adv-x="1124" 
d="M1085 309q-5 -155 -75.5 -248.5t-167.5 -93.5q-79 0 -138.5 91.5t-59.5 281.5q0 42 2 80t5 72l35 329h-231q-60 -624 -98.5 -742.5t-130.5 -118.5q-39 0 -74 31t-35 82q0 46 72.5 128.5t80.5 150.5l60 469h-97q-40 0 -78.5 -19.5t-56.5 -45.5l-43 -64h-35
q49 152 120.5 228.5t164.5 76.5h764v-176h-258q-12 -120 -18.5 -240t-6.5 -241q0 -82 38 -133t95 -51q35 0 73.5 28.5t43.5 74.5q3 22 4.5 34.5t1.5 15.5h43z" />
    <glyph glyph-name="endash" unicode="&#x2013;" horiz-adv-x="1024" 
d="M-12 778h1048v-82h-1048v82z" />
    <glyph glyph-name="emdash" unicode="&#x2014;" horiz-adv-x="2048" 
d="M-12 778h2072v-82h-2072v82z" />
    <glyph glyph-name="quoteleft" unicode="&#x2018;" horiz-adv-x="342" 
d="M301 1495l6 -8q-103 -73 -139.5 -158t-36.5 -143q0 -11 6 -25t17 -14q1 0 20 4t23 4q42 0 75 -28.5t33 -73.5q0 -42 -29.5 -75.5t-82.5 -33.5q-60 0 -107 53t-47 148q0 108 60.5 192t201.5 158z" />
    <glyph glyph-name="quoteright" unicode="&#x2019;" horiz-adv-x="342" 
d="M41 944l-6 8q110 81 143 162.5t33 138.5q0 39 -23 39q-4 0 -18 -4t-25 -4q-44 0 -76 30t-32 72q0 43 30.5 76t82.5 33q62 0 107.5 -53t45.5 -148q0 -106 -58 -189.5t-204 -160.5z" />
    <glyph glyph-name="quotesinglbase" unicode="&#x201a;" horiz-adv-x="342" 
d="M43 -362l-8 8q105 74 140.5 156t35.5 145q0 39 -21 39q-2 0 -22 -4q-9 -3 -16 -4h-7v-1q-42 0 -75 30t-33 73t31 75.5t82 32.5q60 0 106.5 -51.5t46.5 -148.5q0 -147 -89 -229t-171 -121z" />
    <glyph glyph-name="quotedblleft" unicode="&#x201c;" horiz-adv-x="682" 
d="M641 1495l6 -8q-103 -73 -139.5 -158t-36.5 -143q0 -11 6 -25t17 -14q2 0 19.5 4t23.5 4q42 0 75 -28.5t33 -73.5q0 -44 -31 -76.5t-82 -32.5q-61 0 -107 53.5t-46 147.5q0 108 60.5 192t201.5 158zM299 1495l8 -8q-105 -73 -140.5 -157t-35.5 -144q0 -39 21 -39
q2 0 19.5 4t23.5 4q43 0 75.5 -29t32.5 -73t-31 -76.5t-82 -32.5q-65 0 -109 56.5t-44 144.5q0 108 60.5 192t201.5 158z" />
    <glyph glyph-name="quotedblright" unicode="&#x201d;" horiz-adv-x="682" 
d="M41 944l-6 8q110 81 143 162.5t33 138.5q0 39 -23 39q-4 0 -18 -4t-25 -4q-44 0 -76 30t-32 72q0 43 30.5 76t82.5 33q62 0 107.5 -53t45.5 -148q0 -106 -58 -189.5t-204 -160.5zM383 944l-8 8q88 61 132 142.5t44 158.5q0 39 -21 39q-4 0 -18 -4t-25 -4q-44 0 -76 30
t-32 72q0 43 30.5 76t82.5 33q61 0 107 -52.5t46 -148.5q0 -106 -58 -189.5t-204 -160.5z" />
    <glyph glyph-name="quotedblbase" unicode="&#x201e;" horiz-adv-x="682" 
d="M41 -362l-6 8q105 76 140.5 159.5t35.5 141.5q0 39 -23 39q-2 0 -10 -2q-13 -3 -20 -4.5t-13 -1.5v-1q-44 0 -76 30.5t-32 72.5q0 43 31 75.5t82 32.5q60 0 106.5 -51.5t46.5 -148.5q0 -219 -262 -350zM383 -362l-8 8q105 74 140.5 156t35.5 145q0 39 -21 39q-2 0 -10 -2
q-13 -3 -20 -4.5t-13 -1.5v-1q-44 0 -76 30.5t-32 72.5q0 43 31 75.5t82 32.5q61 0 107 -52t46 -148q0 -219 -262 -350z" />
    <glyph glyph-name="dagger" unicode="&#x2020;" horiz-adv-x="774" 
d="M469 1473l-31 -441h113q33 1 83 7.5t62.5 18.5t14 25t4.5 13q2 5 24 4v-150h-307l-24 -504q-15 -327 -41 -575q-5 -39 -5 -109v-38h-18q-2 81 -16 245.5t-14 677.5q0 188 -3 303h-94q-36 0 -86 -7t-61 -19t-11.5 -24.5t-3.5 -12.5q-4 -4 -26 -6v151h278q0 53 -10.5 195
t-18.5 173.5t-24 42.5t-59 11v19h274z" />
    <glyph glyph-name="daggerdbl" unicode="&#x2021;" horiz-adv-x="774" 
d="M449 958q-9 -182 -9 -384q0 -101 2 -195h109q74 0 115.5 12t43.5 30.5t5 18.5q2 6 24 6v-151h-293q0 -35 5 -96l4 -62q14 -221 33.5 -242.5t86.5 -21.5v-18h-290l32 440h-100q-36 -1 -86 -7.5t-61 -19t-11.5 -24.5t-3.5 -13q-4 -3 -26 -2v150h288q13 196 13 411
q0 83 -2 160h-111q-36 0 -86 -7t-61 -19t-11.5 -24.5t-3.5 -12.5q-4 -4 -26 -6v151h295l-8 147q-5 76 -22.5 152.5t-23 91.5t-22 23t-53.5 8v19h274l-16 -375v-66h98q33 1 83 7.5t62.5 18.5t14 25t4.5 13q2 5 24 4v-150z" />
    <glyph glyph-name="bullet" unicode="&#x2022;" horiz-adv-x="717" 
d="M358 928q108 0 180 -74t72 -176t-72.5 -177t-179.5 -75q-103 0 -176 75.5t-73 176.5q0 97 70.5 173.5t178.5 76.5z" />
    <glyph glyph-name="ellipsis" unicode="&#x2026;" horiz-adv-x="2048" 
d="M1597 88q0 43 31 76t78 33q46 0 77.5 -31t31.5 -78q0 -45 -32 -76.5t-77 -31.5q-42 0 -75.5 32t-33.5 76zM915 88q0 43 31 76t78 33q46 0 77.5 -31t31.5 -78q0 -45 -32 -76.5t-77 -31.5q-42 0 -75.5 32t-33.5 76zM233 88q0 43 31.5 76t77.5 33t77.5 -31t31.5 -78
q0 -45 -32 -76.5t-77 -31.5q-42 0 -75.5 32t-33.5 76z" />
    <glyph glyph-name="perthousand" unicode="&#x2030;" horiz-adv-x="2361" 
d="M313 709q-126 0 -214.5 94t-88.5 268q0 192 94 311t238 119q133 0 217 -94.5t84 -271.5q0 -190 -94 -308t-236 -118zM346 750q73 0 125.5 73.5t52.5 216.5q0 206 -64 313t-151 107q-72 0 -127 -68t-55 -227q0 -186 64.5 -300.5t154.5 -114.5zM305 0l963 1497l65 -24
l-960 -1498zM1305 -10q-131 0 -218.5 94.5t-87.5 265.5q0 191 94 310.5t240 119.5q134 0 216.5 -95.5t82.5 -270.5q0 -183 -90.5 -303.5t-236.5 -120.5zM1337 29q73 0 126 73.5t53 216.5q0 195 -61.5 307.5t-156.5 112.5q-70 0 -125 -67.5t-55 -227.5q0 -194 66 -304.5
t153 -110.5zM2023 -8q-131 0 -218 95t-87 263q0 189 93 309.5t241 120.5q135 0 217 -96.5t82 -267.5q0 -187 -91.5 -305.5t-236.5 -118.5zM2056 31q70 0 124 69t54 219q0 199 -60.5 309.5t-156.5 110.5q-70 0 -125 -67.5t-55 -227.5q0 -178 62 -295.5t157 -117.5z" />
    <glyph glyph-name="guilsinglleft" unicode="&#x2039;" horiz-adv-x="492" 
d="M438 1116l-196 -381l198 -377h-32l-353 379l348 379h35z" />
    <glyph glyph-name="guilsinglright" unicode="&#x203a;" horiz-adv-x="492" 
d="M53 358l197 381l-199 377h33l352 -379l-348 -379h-35z" />
    <glyph glyph-name="Euro" unicode="&#x20ac;" horiz-adv-x="1237" 
d="M1167 145q-78 -81 -172 -124.5t-233 -43.5q-124 0 -216.5 18t-187.5 80t-156 151.5t-90.5 194t-35.5 220.5h-70l8 43h60v21q0 34 4 90h-72l8 43h66q37 316 216.5 489.5t463.5 173.5q64 0 133 -14t188 -68l45 -135h-14q-122 176 -381 176q-245 0 -371.5 -158t-126.5 -458
v-6h777l-9 -43h-768q2 -73 7 -111h737l-8 -43h-725q64 -625 569 -625q182 0 338 152z" />
    <glyph glyph-name="trademark" unicode="&#x2122;" horiz-adv-x="2007" 
d="M51 1524h729l21 -201h-33q-11 85 -60 113t-135 28h-73v-579q0 -83 19.5 -106t84.5 -27v-35h-375v35q53 7 77 21.5t24 109.5v581h-76q-108 0 -143.5 -39t-47.5 -102h-32zM1157 1524l273 -572l264 572h278v-37q-75 -2 -91.5 -26t-16.5 -109v-467q0 -87 20 -109t88 -24v-35
h-397v35q71 2 95 23t24 108v491h-4l-301 -657h-33l-305 649h-4v-481q0 -64 14 -98.5t80 -34.5h37v-35h-308v35q74 4 93.5 25t19.5 106v467q0 81 -14.5 109t-98.5 28v37h287z" />
    <glyph glyph-name="Ohm" unicode="&#x2126;" horiz-adv-x="1573" 
d="M1506 0h-604l33 311q161 59 226 200t65 313q0 227 -107 373t-331 146t-331 -146t-107 -373q0 -172 65 -313t226 -200l33 -311h-604v332h30q16 -66 40 -95.5t96 -29.5h323l-4 57q-238 65 -341 221t-103 332q0 259 192 425.5t485 166.5t485 -166.5t192 -425.5
q0 -176 -103 -332t-341 -221l-4 -57h323q72 0 96 29.5t40 95.5h30v-332z" />
    <glyph glyph-name="partialdiff" unicode="&#x2202;" horiz-adv-x="1012" 
d="M295 1120h-45q131 303 379 303q161 0 263.5 -127t102.5 -376q0 -358 -164.5 -654.5t-427.5 -296.5q-155 0 -246 91t-91 245q0 239 166.5 420.5t383.5 181.5q222 0 312 -190h4q10 144 10 186q0 175 -92.5 276t-253.5 101q-194 0 -301 -160zM911 629q-81 225 -284 225
q-178 0 -286 -190.5t-108 -399.5q0 -108 54 -172.5t143 -64.5q136 0 279.5 162.5t201.5 439.5z" />
    <glyph glyph-name="Delta" unicode="&#x2206;" horiz-adv-x="1253" 
d="M668 1409l577 -1409h-1233zM594 1059l-447 -959h844z" />
    <glyph glyph-name="product" unicode="&#x220f;" horiz-adv-x="1686" 
d="M1645 -207h-629v47q120 0 159.5 41t39.5 125v1419h-734v-1419q0 -84 39.5 -125t159.5 -41v-47h-629v47q122 0 160.5 41t38.5 125v1282q0 101 -48.5 152t-146.5 51v47h1586v-47q-98 0 -146.5 -51t-48.5 -152v-1282q0 -84 38.5 -125t160.5 -41v-47z" />
    <glyph glyph-name="summation" unicode="&#x2211;" horiz-adv-x="1460" 
d="M1423 238q-32 -125 -54 -240t-34 -219q-63 11 -102.5 16.5t-54.5 5.5h-1031q-20 0 -59 -3t-59 -3l714 815l-710 930q70 -7 123 -10.5t90 -3.5h1018l12 -326h-41q-31 102 -52.5 141t-81.5 66q-30 13 -74.5 20t-104.5 7h-539l559 -734l-602 -694h760q127 0 177.5 52
t98.5 180h47z" />
    <glyph glyph-name="minus" unicode="&#x2212;" horiz-adv-x="1124" 
d="M1100 602v-113h-1077v113h1077z" />
    <glyph glyph-name="fraction" unicode="&#x2215;" horiz-adv-x="342" 
d="M582 1386h114l-950 -1411h-115z" />
    <glyph glyph-name="radical" unicode="&#x221a;" horiz-adv-x="1124" 
d="M1055 1868l-307 -1946l-498 1028l-197 -96l-33 68l299 147l404 -825l260 1634z" />
    <glyph glyph-name="infinity" unicode="&#x221e;" horiz-adv-x="1460" 
d="M653 668q71 169 159 222.5t212 53.5q161 0 272 -116.5t111 -301.5q0 -186 -111.5 -303t-238.5 -117q-95 0 -170.5 63t-165.5 224q-117 -233 -324 -233q-149 0 -246.5 104.5t-97.5 263.5q0 157 89 262t218 105q80 0 149 -42t144 -185zM750 465q64 -138 134.5 -201
t176.5 -63q126 0 207.5 91t81.5 234q0 140 -84 240t-199 100q-55 0 -97.5 -21.5t-74.5 -62t-64 -116.5zM614 557l11 33q-96 215 -267 215q-110 0 -179.5 -76.5t-69.5 -198.5q0 -123 66.5 -207.5t162.5 -84.5q82 0 149.5 65t126.5 254z" />
    <glyph glyph-name="integral" unicode="&#x222b;" horiz-adv-x="561" 
d="M602 1760q0 -39 -29.5 -64t-75.5 -25q-37 0 -60 25t-44 25q-18 0 -27.5 -14.5t-9.5 -43.5q0 -34 19.5 -256t19.5 -551q0 -505 -30 -709.5t-79 -282.5q-26 -41 -67.5 -62t-85.5 -21q-49 0 -86 35t-37 85q0 38 25.5 65t64.5 27q34 0 65.5 -33t44.5 -33q25 0 39.5 44.5
t14.5 153.5q0 37 -6 197t-6 562q0 481 17 638.5t41 215.5q29 70 69 104t84 34q57 0 98 -32.5t41 -83.5z" />
    <glyph glyph-name="approxequal" unicode="&#x2248;" horiz-adv-x="1124" 
d="M1022 874h51q-21 -155 -95.5 -238t-186.5 -83q-97 0 -304 117q-139 78 -211 78q-149 0 -178 -187h-47q20 154 93.5 238t181.5 84q47 0 107 -19.5t224 -107.5q118 -62 193 -62q144 0 172 180zM1022 487h51q-21 -155 -95.5 -238t-186.5 -83q-96 0 -268.5 97t-246.5 97
q-149 0 -178 -186h-47q20 153 93.5 236.5t181.5 83.5q47 0 112 -21.5t219 -103.5q118 -62 193 -62q144 0 172 180z" />
    <glyph glyph-name="notequal" unicode="&#x2260;" horiz-adv-x="1124" 
d="M1106 279h-621l-184 -330l-100 57l151 273h-321v112h385l157 285h-542v112h606l186 336l101 -57l-156 -279h338v-112h-399l-160 -285h559v-112z" />
    <glyph glyph-name="lessequal" unicode="&#x2264;" horiz-adv-x="1124" 
d="M1077 240l-1018 471v127l1018 471v-127l-887 -408l887 -407v-127zM1077 0h-1018v112h1018v-112z" />
    <glyph glyph-name="greaterequal" unicode="&#x2265;" horiz-adv-x="1124" 
d="M1077 711l-1018 -471v127l887 407l-887 408v127l1018 -471v-127zM1077 0h-1018v112h1018v-112z" />
    <glyph glyph-name="lozenge" unicode="&#x25ca;" horiz-adv-x="1012" 
d="M962 763l-397 -763h-122l-397 763l397 763h122zM839 763l-335 652l-335 -652l335 -652z" />
    <glyph glyph-name="apple" unicode="&#xf000;" horiz-adv-x="717" 
d="M358 928q108 0 180 -74t72 -176t-72.5 -177t-179.5 -75q-103 0 -176 75.5t-73 176.5q0 97 70.5 173.5t178.5 76.5z" />
    <glyph glyph-name="foursuperior" unicode="&#xf003;" horiz-adv-x="653" 
d="M629 985h-135v-172q0 -38 8.5 -54t42.5 -16h12v-22h-244v22h13q33 0 44 11t11 57v174h-361l408 485h68v-444h77q10 0 21.5 9.5t14.5 12.5t3 15h17v-78zM381 1024l2 330q-2 0 -283 -330h281z" />
    <glyph glyph-name="fi" unicode="&#xfb01;" horiz-adv-x="1556" 
d="M74 1458v17h932v-175h-15v9l-2 4q-13 63 -45 86.5t-121 23.5h-475v-649h443q62 0 81 10.5t21 38.5h14v-141h-14q0 51 -66 51h-479v-588q0 -83 25.5 -107t87.5 -24v-14h-387v14q68 0 86 26t18 73v1212q0 80 -22.5 106.5t-81.5 26.5zM1487 1475v-17q-31 3 -65.5 -8t-41 -37
t-6.5 -106v-1133q0 -89 7 -110.5t29 -35.5t77 -14v-14h-393v14q74 0 92 28.5t18 129.5v1120q0 113 -23 141.5t-87 24.5v17h393z" />
    <glyph glyph-name="fl" unicode="&#xfb02;" horiz-adv-x="2134" 
d="M74 1458v17h932v-175h-15v9l-2 4q-13 63 -45 86.5t-121 23.5h-475v-649h443q62 0 81 10.5t21 38.5h14v-141h-14q0 51 -66 51h-479v-588q0 -83 25.5 -107t87.5 -24v-14h-387v14q68 0 86 26t18 73v1212q0 80 -22.5 106.5t-81.5 26.5zM1049 0v14q71 0 90.5 27t19.5 88v1206
q0 80 -23.5 101.5t-88.5 21.5v17h395v-17q-50 3 -76.5 -13t-31.5 -40t-5 -80v-1034q0 -133 64 -187.5t219 -54.5h180q137 0 195 69.5t63 235.5h14v-354h-1015z" />
    </font>
</defs>
</svg>
